Поиск

(Funk, Soul) [CD] Carey Harris & Michael Orr - Spread Love - 1976 (Reissue 2015), FLAC (tracks+.cue), lossless

(Funk, Soul) [CD] Carey Harris & Michael Orr - Spread Love - 1976 (Reissue 2015), FLAC (tracks+.cue), lossless
Треклист:
Carey Harris & Michael Orr / Spread Love
Жанр: Funk, Soul
Носитель: CD
Страна-производитель диска (релиза): Japan
Год издания: 1976
Год издания CD: 2015
Издатель (лейбл): P-Vine Records
Номер по каталогу: PCD-24432
Аудиокодек: FLAC (*.flac)
Тип рипа: tracks+.cue
Битрейт аудио: lossless
Продолжительность: 42:26
Источник (релизер): artmuss
Наличие сканов в содержимом раздачи: нет
Треклист:
1. Ecstasy, Fantasy & Dreamland (03:32)
2. Let Me Be With You Awhile (04:14)
3. Here I Go (Through These Changes Again) (03:10)
4. Feelings (05:08)
5. A Piece Of Mine (05:36)
6. Spread Love (05:23)
7. Keep My Fire Burning (05:28)
8. You Opened My Eyes To The World (06:44)
9. Afterwhile (03:05)
 
Лог создания рипа
Exact Audio Copy V1.1 from 23. June 2015
EAC extraction logfile from 20. June 2016, 6:10
Michael Orr / Spread Love (2015 Remastered)
Used drive : PIONEER BD-RW BDR-XD05 Adapter: 1 ID: 1
Read mode : Secure
Utilize accurate stream : Yes
Defeat audio cache : Yes
Make use of C2 pointers : No
Read offset correction : 667
Overread into Lead-In and Lead-Out : No
Fill up missing offset samples with silence : Yes
Delete leading and trailing silent blocks : No
Null samples used in CRC calculations : Yes
Used interface : Native Win32 interface for Win NT & 2000
Gap handling : Appended to previous track
Used output format : User Defined Encoder
Selected bitrate : 1024 kBit/s
Quality : High
Add ID3 tag : No
Command line compressor : C:\Program Files (x86)\Exact Audio Copy\Flac\flac.exe
Additional command line options : -8 -V -T "ARTIST=%artist%" -T "TITLE=%title%" -T "ALBUM=%albumtitle%" -T "DATE=%year%" -T "TRACKNUMBER=%tracknr%" -T "GENRE=%genre%" -T "PERFORMER=%albuminterpret%" -T "COMPOSER=%composer%" %haslyrics%--tag-from-file=LYRICS="%lyricsfile%"%haslyrics% -T "ALBUMARTIST=%albumartist%" -T "DISCNUMBER=%cdnumber%" -T "TOTALDISCS=%totalcds%" -T "TOTALTRACKS=%numtracks%" -T "COMMENT=%comment%" %source% -o %dest%
TOC of the extracted CD
Track | Start | Length | Start sector | End sector
---------------------------------------------------------
1 | 0:00.00 | 3:32.45 | 0 | 15944
2 | 3:32.45 | 4:13.59 | 15945 | 34978
3 | 7:46.29 | 3:10.45 | 34979 | 49273
4 | 10:56.74 | 5:08.57 | 49274 | 72430
5 | 16:05.56 | 5:36.40 | 72431 | 97670
6 | 21:42.21 | 5:23.73 | 97671 | 121968
7 | 27:06.19 | 5:28.60 | 121969 | 146628
8 | 32:35.04 | 6:44.49 | 146629 | 176977
9 | 39:19.53 | 3:05.65 | 176978 | 190917
Track 1
Filename C:\EACRips\01 Ecstasy, Fantasy & Dreamland.wav
Pre-gap length 0:00:02.00
Peak level 97.3 %
Extraction speed 2.7 X
Track quality 100.0 %
Test CRC B9CD32AE
Copy CRC B9CD32AE
Track not present in AccurateRip database
Copy OK
Track 2
Filename C:\EACRips\02 Let Me Be With You Awhile.wav
Pre-gap length 0:00:01.28
Peak level 95.5 %
Extraction speed 3.0 X
Track quality 100.0 %
Test CRC 2928E887
Copy CRC 2928E887
Track not present in AccurateRip database
Copy OK
Track 3
Filename C:\EACRips\03 Here I Go (Through These Changes Again).wav
Pre-gap length 0:00:00.97
Peak level 97.4 %
Extraction speed 3.1 X
Track quality 100.0 %
Test CRC 189DFE37
Copy CRC 189DFE37
Track not present in AccurateRip database
Copy OK
Track 4
Filename C:\EACRips\04 Feelings.wav
Pre-gap length 0:00:01.61
Peak level 92.6 %
Extraction speed 3.3 X
Track quality 99.9 %
Test CRC 5D0E0C0E
Copy CRC 5D0E0C0E
Track not present in AccurateRip database
Copy OK
Track 5
Filename C:\EACRips\05 A Piece Of Mine.wav
Pre-gap length 0:00:01.54
Peak level 96.8 %
Extraction speed 4.0 X
Track quality 100.0 %
Test CRC 2F654B6F
Copy CRC 2F654B6F
Track not present in AccurateRip database
Copy OK
Track 6
Filename C:\EACRips\06 Spread Love.wav
Pre-gap length 0:00:01.33
Peak level 97.1 %
Extraction speed 4.2 X
Track quality 100.0 %
Test CRC 492B5DD4
Copy CRC 492B5DD4
Track not present in AccurateRip database
Copy OK
Track 7
Filename C:\EACRips\07 Keep My Fire Burning.wav
Pre-gap length 0:00:01.44
Peak level 91.5 %
Extraction speed 4.4 X
Track quality 100.0 %
Test CRC 8CA41703
Copy CRC 8CA41703
Track not present in AccurateRip database
Copy OK
Track 8
Filename C:\EACRips\08 You Opened My Eyes To The World.wav
Pre-gap length 0:00:00.52
Peak level 97.6 %
Extraction speed 4.8 X
Track quality 100.0 %
Test CRC 1D44AB9B
Copy CRC 1D44AB9B
Track not present in AccurateRip database
Copy OK
Track 9
Filename C:\EACRips\09 Afterwhile.wav
Pre-gap length 0:00:01.65
Peak level 92.8 %
Extraction speed 4.5 X
Track quality 100.0 %
Test CRC F2C6C225
Copy CRC F2C6C225
Track not present in AccurateRip database
Copy OK
None of the tracks are present in the AccurateRip database
No errors occurred
End of status report
---- CUETools DB Plugin V2.1.6
[CTDB TOCID: SyOOjszzaJu.oIC073IlkGn4pZM-] found
Submit result: SyOOjszzaJu.oIC073IlkGn4pZM- has been confirmed
Track | CTDB Status
1 | (1/1) Accurately ripped
2 | (1/1) Accurately ripped
3 | (1/1) Accurately ripped
4 | (1/1) Accurately ripped
5 | (1/1) Accurately ripped
6 | (1/1) Accurately ripped
7 | (1/1) Accurately ripped
8 | (1/1) Accurately ripped
9 | (1/1) Accurately ripped
==== Log checksum 1AA183F8135B10A57839F4980DE6801FB15E4E15588E195E554092B7295EC469 ====
 
Содержание индексной карты (.CUE)
REM GENRE Funk
REM DATE 1976
REM DISCID 7F09F109
REM COMMENT "ExactAudioCopy v1.1"
CATALOG 4995879244326
PERFORMER "Michael Orr"
TITLE "Spread Love (2015 Remastered)"
FILE "01 Ecstasy, Fantasy & Dreamland.wav" WAVE
TRACK 01 AUDIO
TITLE "Ecstasy, Fantasy & Dreamland"
PERFORMER "Michael Orr"
ISRC JPV501500860
INDEX 01 00:00:00
TRACK 02 AUDIO
TITLE "Let Me Be With You Awhile"
PERFORMER "Michael Orr"
ISRC JPV501500861
INDEX 00 03:31:24
FILE "02 Let Me Be With You Awhile.wav" WAVE
INDEX 01 00:00:00
TRACK 03 AUDIO
TITLE "Here I Go (Through These Changes Again)"
PERFORMER "Michael Orr"
ISRC JPV501500862
INDEX 00 04:12:61
FILE "03 Here I Go (Through These Changes Again).wav" WAVE
INDEX 01 00:00:00
TRACK 04 AUDIO
TITLE "Feelings"
PERFORMER "Michael Orr"
ISRC JPV501500863
INDEX 00 03:08:74
FILE "04 Feelings.wav" WAVE
INDEX 01 00:00:00
TRACK 05 AUDIO
TITLE "A Piece Of Mine"
PERFORMER "Michael Orr"
ISRC JPV501500864
INDEX 00 05:07:16
FILE "05 A Piece Of Mine.wav" WAVE
INDEX 01 00:00:00
TRACK 06 AUDIO
TITLE "Spread Love"
PERFORMER "Michael Orr"
ISRC JPV501500865
INDEX 00 05:35:15
FILE "06 Spread Love.wav" WAVE
INDEX 01 00:00:00
TRACK 07 AUDIO
TITLE "Keep My Fire Burning"
PERFORMER "Michael Orr"
ISRC JPV501500866
INDEX 00 05:22:40
FILE "07 Keep My Fire Burning.wav" WAVE
INDEX 01 00:00:00
TRACK 08 AUDIO
TITLE "You Opened My Eyes To The World"
PERFORMER "Michael Orr"
ISRC JPV501500867
INDEX 00 05:28:21
FILE "08 You Opened My Eyes To The World.wav" WAVE
INDEX 01 00:00:00
TRACK 09 AUDIO
TITLE "Afterwhile"
PERFORMER "Michael Orr"
ISRC JPV501500868
INDEX 00 06:43:00
FILE "09 Afterwhile.wav" WAVE
INDEX 01 00:00:00
 
DR Log
foobar2000 1.1.10 / Dynamic Range Meter 1.1.1
log date: 2018-07-25 17:32:55
--------------------------------------------------------------------------------
Analyzed: Carey Harris and Michael Orr / Spread Love
--------------------------------------------------------------------------------
DR Peak RMS Duration Track
--------------------------------------------------------------------------------
DR15 -0.23 dB -15.89 dB 3:33 ?-Ecstasy, Fantasy & Dreamland
DR14 -0.40 dB -16.14 dB 4:14 ?-Let Me Be With You Awhile
DR15 -0.23 dB -15.86 dB 3:11 ?-Here I Go (Through These Changes Again)
DR13 -0.66 dB -15.68 dB 5:09 ?-Feelings
DR15 -0.28 dB -16.10 dB 5:37 ?-A Piece Of Mine
DR14 -0.25 dB -15.35 dB 5:24 ?-Spread Love
DR13 -0.76 dB -15.43 dB 5:29 ?-Keep My Fire Burning
DR14 -0.21 dB -14.87 dB 6:45 ?-You Opened My Eyes To The World
DR13 -0.64 dB -15.36 dB 3:06 ?-Afterwhile
--------------------------------------------------------------------------------
Number of tracks: 9
Official DR value: DR14
Samplerate: 44100 Hz
Channels: 2
Bits per sample: 16
Bitrate: 741 kbps
Codec: FLAC
================================================================================
 
Об исполнителе (группе)
In 1975 Orr and Harris started to record one of the best unheard projects in recording history their album Spread love . Around that time Orr was asked by the Oberlin Obsevatory in Ohio to do a presentation on music production. After the presentation he heard a singer who gave him goose bumps he had never experienced before. Her name was Bernadine Mitchell. She was eventually to provide the perfect vocal finish to one of the key songs Orr had written for the album Feelings a superb mid-tempo ballad. The opening song Ecstasy, Fantasy, Dreamland just about sums up what pressure these guys were under, to put their positive, soulful message across. Here I Go Through These Changes is a modern soul classic and an auto biographical song and was descriptive of Orr s ability to let go of something he loved dearly, even knowing it was going to put him through change after change. The song was later covered by soul legend Johnny Taylor and released as a single. The first single to support the album was the title track Spread love a superb, percussive led modern dancer, sounding unbelievably fresh and up to date considering it was recorded 40 years ago. The skipping dance beat of the jazz influenced instrumental Piece of Mind wouldn t be out of place at todays Soul/Jazz clubs. Jazz is a recurring factor throughout the whole of this album, just listen to You Opened My Eyes to the World . But unfortunately it turned out that without a big company to back up the release they received hardly any airplay. Disco became very prominent and their sound did not fit the format that was dominating R&B stations across America. Though radio stations in Detroit and Washington were very supportive and they still succeeded to sell 5000 copies. However the record made its way to Europe. After many years Michael still receives requests from U.K., Sweden, Germany even from Japan and many other Euro countries for original copies of his album. Spread love was truly released ahead of its time. Up to now only collectors have enjoyed this vintage piece. On record collector websites the record is for sale for amounts of over 100 and 200 Euro. But now re-issue label PTG Records is proud to have re-released on CD the Orr and Harris classic Spread love . This reissue is digitally remastered form original mastertape.
 
Состав
Arranged By [Co-arranged By] – Michael Neal (tracks: 1 to 5)
Bass Guitar – Carey Harris
Drums – Ricardo "Speed" Nixon
Guitar – Bobby Curry (tracks: 6 to 9), Reggie Stewart
Keyboards, Vocals – Michael Orr
Percussion – P. Adolph Burton
Trumpet, Flugelhorn, Flute – Michael Neal
Vibraphone – Bernard James (tracks: 1 to 5)

Раздаю до первых 5-ти скачавших, на раздачи не возвращаюсь...
Приватный:
Нет (DHT включён)
Размер:
255.10 Мб (267,488,375 байт) » файлов: 16
Участники:
0 раздают, 0 качают (0 участников всего)
Внешние участники:
2 раздают, 1 качают (3 участников всего) [ Обновить ]
No seeders - write personal message to user M0p94ok. Нет сидеров - пишите личное сообщение пользователю M0p94ok.
16:14
88
Нет комментариев. Ваш будет первым!