Поиск

(Funk, Soul) [CD] Bobby Patterson - I Get My Groove From You - 1996, FLAC (tracks+.cue), lossless

(Funk, Soul) [CD] Bobby Patterson - I Get My Groove From You - 1996, FLAC (tracks+.cue), lossless
Треклист:
Bobby Patterson - I Get My Groove From You Жанр: Funk, Soul
Носитель: CD
Год издания: 1996
Издатель (лейбл): Charly Records
Номер по каталогу: CPCD 8123
Аудиокодек: FLAC (*.flac)
Тип рипа: tracks+.cue
Битрейт аудио: lossless
Продолжительность: 63:15
Источник (релизер): ruskaval
Наличие сканов в содержимом раздачи: да
Треклист:
01. I Get My Groove From You (3:26)
02. Make Sure You Can Handle It (2:49)
03. If You Took A Survey (2:43)
04. Everything Good To You (Don't Have To Be Good For You) (3:03)
05. How Do You Spell Love? (2:25)
06. Recipe For Peace (3:24)
07. She Don't Have To See You (To See Through You) (3:30)
08. Right On Jody (3:12)
09. Quiet! Do Not Disturb (2:07)
10. I Just Love You Because I Wanted To (2:30)
11. One Ounce Of Prevention (3:04)
12. This Whole Funky World Is A Ghetto (3:46)
13. What Goes Around Comes Around (2:51)
14. It Takes Two To Do Wrong (2:08)
15. Take Time To Know The Truth (3:42)
16. I'm In The Wrong (4:34)
17. If Love Can't Do It (It Can't Be Done) (2:58)
18. I Got A Suspicion (4:05)
19. Right Place, Wrong Time (3:35)
20. She Don't Have To See You (To See Through You) (Alternate Mix) (3:25)
 
 
Об альбоме (сборнике)
Bobby Patterson's I Get My Groove From You is a gritty 20-track collection of the Texas soul singer's '70s recordings, 19 of them recorded between 1971-1973 for Paula, one ("Right Place, Wrong Time") for All Platinum in 1977. He never had any hits, but Patterson's low-down delivery and the backing band's tough-as-nails sound deliver an enjoyable punch. He wrote most of the tunes here, focusing mainly on extracurricular affairs and their fallout.
"Right On Jody" is an answer song to Johnnie Taylor's "Jody Got Your Girl and Gone," "One Ounce of Prevention" is a funky warning, and "Right Place, Wrong Time" is a surprisingly classic sounding track. Patterson's style is a kind of cross between the folksy style of Joe Tex and the smooth Southern sound of Luther Ingram. That is a mighty fine cross to bear. Sundazed and Ace have focused on the man's earlier recordings. If you dug those, you will find this set to be essential. Otherwise if you are a fan of early-'70s non-Philly soul, this is top-notch stuff.
All Tracks produced by Bobby Patterson except
Track 13 produced by Sam Dees & Bobby Patterson
All tracks Paula Records 1972-1973 except
Track 18-19 All Platinum Records 1977

 
Лог создания рипа
EAC extraction logfile from 7. August 2008, 3:30 for CD
Bobby Patterson / I Get My Groove From You
Used drive : TSSTcorpCD/DVDW SH-S182M Adapter: 3 ID: 0
Read mode : Secure with NO C2, accurate stream, disable cache
Read offset correction : 6
Overread into Lead-In and Lead-Out : No
Used output format : Internal WAV Routines
44.100 Hz; 16 Bit; Stereo
Other options :
Fill up missing offset samples with silence : Yes
Delete leading and trailing silent blocks : No
Installed external ASPI interface
Track 1
Filename P:\Soul Seed\Bobby Patterson - I Get My Groove From You (1972) [FLAC]\01 - I Get My Groove From You.wav
Pre-gap length 0:00:02.42
Peak level 93.0 %
Track quality 99.9 %
Test CRC 456C4EC8
Copy CRC 456C4EC8
Copy OK
Track 2
Filename P:\Soul Seed\Bobby Patterson - I Get My Groove From You (1972) [FLAC]\02 - Make Sure You Can Handle It.wav
Pre-gap length 0:00:02.80
Peak level 88.5 %
Track quality 99.9 %
Test CRC F1CDB580
Copy CRC F1CDB580
Copy OK
Track 3
Filename P:\Soul Seed\Bobby Patterson - I Get My Groove From You (1972) [FLAC]\03 - If You Took A Survey.wav
Pre-gap length 0:00:02.84
Peak level 87.7 %
Track quality 100.0 %
Test CRC 5F9161A9
Copy CRC 5F9161A9
Copy OK
Track 4
Filename P:\Soul Seed\Bobby Patterson - I Get My Groove From You (1972) [FLAC]\04 - Everything Good To You (Don't Have To Be Good For You).wav
Pre-gap length 0:00:02.70
Peak level 87.9 %
Track quality 99.9 %
Test CRC 4CD78CD4
Copy CRC 4CD78CD4
Copy OK
Track 5
Filename P:\Soul Seed\Bobby Patterson - I Get My Groove From You (1972) [FLAC]\05 - How Do You Spell Love.wav
Pre-gap length 0:00:02.73
Peak level 98.8 %
Track quality 100.0 %
Test CRC C6888917
Copy CRC C6888917
Copy OK
Track 6
Filename P:\Soul Seed\Bobby Patterson - I Get My Groove From You (1972) [FLAC]\06 - Recipe For Peace.wav
Pre-gap length 0:00:03.06
Peak level 89.0 %
Track quality 100.0 %
Test CRC 48CBD19E
Copy CRC 48CBD19E
Copy OK
Track 7
Filename P:\Soul Seed\Bobby Patterson - I Get My Groove From You (1972) [FLAC]\07 - She Don't Have To See You (To See Through You).wav
Pre-gap length 0:00:02.76
Peak level 88.1 %
Track quality 100.0 %
Test CRC 1B82F5B1
Copy CRC 1B82F5B1
Copy OK
Track 8
Filename P:\Soul Seed\Bobby Patterson - I Get My Groove From You (1972) [FLAC]\08 - Right On Jody.wav
Pre-gap length 0:00:02.53
Peak level 88.1 %
Track quality 100.0 %
Test CRC 6026C35D
Copy CRC 6026C35D
Copy OK
Track 9
Filename P:\Soul Seed\Bobby Patterson - I Get My Groove From You (1972) [FLAC]\09 - Quiet! Do Not Disturb.wav
Pre-gap length 0:00:02.80
Peak level 94.6 %
Track quality 100.0 %
Test CRC 0908F68D
Copy CRC 0908F68D
Copy OK
Track 10
Filename P:\Soul Seed\Bobby Patterson - I Get My Groove From You (1972) [FLAC]\10 - I Just Love You Because I Wanted To.wav
Pre-gap length 0:00:02.64
Peak level 89.1 %
Track quality 100.0 %
Test CRC 7B4E3E0E
Copy CRC 7B4E3E0E
Copy OK
Track 11
Filename P:\Soul Seed\Bobby Patterson - I Get My Groove From You (1972) [FLAC]\11 - One Ounce Of Prevention.wav
Pre-gap length 0:00:02.60
Peak level 89.5 %
Track quality 100.0 %
Test CRC 8563526C
Copy CRC 8563526C
Copy OK
Track 12
Filename P:\Soul Seed\Bobby Patterson - I Get My Groove From You (1972) [FLAC]\12 - This Whole Funky World Is A Ghetto.wav
Pre-gap length 0:00:02.76
Peak level 88.6 %
Track quality 100.0 %
Test CRC 5A1E4915
Copy CRC 5A1E4915
Copy OK
Track 13
Filename P:\Soul Seed\Bobby Patterson - I Get My Groove From You (1972) [FLAC]\13 - What Goes Around Comes Around.wav
Pre-gap length 0:00:02.20
Peak level 88.6 %
Track quality 100.0 %
Test CRC 1AC25B36
Copy CRC 1AC25B36
Copy OK
Track 14
Filename P:\Soul Seed\Bobby Patterson - I Get My Groove From You (1972) [FLAC]\14 - It Takes Two To Do Wrong.wav
Pre-gap length 0:00:02.46
Peak level 90.6 %
Track quality 100.0 %
Test CRC 8E66AF39
Copy CRC 8E66AF39
Copy OK
Track 15
Filename P:\Soul Seed\Bobby Patterson - I Get My Groove From You (1972) [FLAC]\15 - Take Time To Know The Truth.wav
Pre-gap length 0:00:03.00
Peak level 89.1 %
Track quality 100.0 %
Test CRC 31E8B9F2
Copy CRC 31E8B9F2
Copy OK
Track 16
Filename P:\Soul Seed\Bobby Patterson - I Get My Groove From You (1972) [FLAC]\16 - I'm In The Wrong.wav
Pre-gap length 0:00:02.57
Peak level 89.0 %
Track quality 100.0 %
Test CRC 15215ABC
Copy CRC 15215ABC
Copy OK
Track 17
Filename P:\Soul Seed\Bobby Patterson - I Get My Groove From You (1972) [FLAC]\17 - If Love Can't Do It (It Can't Be Done).wav
Pre-gap length 0:00:02.40
Peak level 89.8 %
Track quality 100.0 %
Test CRC 46CC8ACB
Copy CRC 46CC8ACB
Copy OK
Track 18
Filename P:\Soul Seed\Bobby Patterson - I Get My Groove From You (1972) [FLAC]\18 - I Got A Suspicion.wav
Pre-gap length 0:00:02.53
Peak level 89.6 %
Track quality 99.9 %
Test CRC 7FA4A4A3
Copy CRC 7FA4A4A3
Copy OK
Track 19
Filename P:\Soul Seed\Bobby Patterson - I Get My Groove From You (1972) [FLAC]\19 - Right Place, Wrong Time.wav
Pre-gap length 0:00:02.62
Peak level 89.2 %
Track quality 99.9 %
Test CRC F2D11217
Copy CRC F2D11217
Copy OK
Track 20
Filename P:\Soul Seed\Bobby Patterson - I Get My Groove From You (1972) [FLAC]\20 - She Don't Have To See You (To See Through You) (Alternate Mix).wav
Pre-gap length 0:00:01.40
Peak level 88.9 %
Track quality 99.9 %
Test CRC C8FD7F26
Copy CRC C8FD7F26
Copy OK
No errors occured
End of status report
 
Содержание индексной карты (.CUE)
REM GENRE Soul
REM DATE 1996
PERFORMER "Bobby Patterson"
TITLE "I Get My Groove From You"
FILE "01 - I Get My Groove From You.wav" WAVE
TRACK 01 AUDIO
TITLE "I Get My Groove From You"
PERFORMER "Bobby Patterson"
INDEX 01 00:00:00
TRACK 02 AUDIO
TITLE "Make Sure You Can Handle It"
PERFORMER "Bobby Patterson"
INDEX 00 03:23:05
FILE "02 - Make Sure You Can Handle It.wav" WAVE
INDEX 01 00:00:00
TRACK 03 AUDIO
TITLE "If You Took A Survey"
PERFORMER "Bobby Patterson"
INDEX 00 02:45:60
FILE "03 - If You Took A Survey.wav" WAVE
INDEX 01 00:00:00
TRACK 04 AUDIO
TITLE "Everything Good To You (Don't Have To Be Good For You)"
PERFORMER "Bobby Patterson"
INDEX 00 02:40:42
FILE "04 - Everything Good To You (Don't Have To Be Good For You).wav" WAVE
INDEX 01 00:00:00
TRACK 05 AUDIO
TITLE "How Do You Spell Love?"
PERFORMER "Bobby Patterson"
INDEX 00 02:59:67
FILE "05 - How Do You Spell Love.wav" WAVE
INDEX 01 00:00:00
TRACK 06 AUDIO
TITLE "Recipe For Peace"
PERFORMER "Bobby Patterson"
INDEX 00 02:21:48
FILE "06 - Recipe For Peace.wav" WAVE
INDEX 01 00:00:00
TRACK 07 AUDIO
TITLE "She Don't Have To See You (To See Through You)"
PERFORMER "Bobby Patterson"
INDEX 00 03:21:45
FILE "07 - She Don't Have To See You (To See Through You).wav" WAVE
INDEX 01 00:00:00
TRACK 08 AUDIO
TITLE "Right On Jody"
PERFORMER "Bobby Patterson"
INDEX 00 03:27:58
FILE "08 - Right On Jody.wav" WAVE
INDEX 01 00:00:00
TRACK 09 AUDIO
TITLE "Quiet! Do Not Disturb"
PERFORMER "Bobby Patterson"
INDEX 00 03:08:67
FILE "09 - Quiet! Do Not Disturb.wav" WAVE
INDEX 01 00:00:00
TRACK 10 AUDIO
TITLE "I Just Love You Because I Wanted To"
PERFORMER "Bobby Patterson"
INDEX 00 02:04:00
FILE "10 - I Just Love You Because I Wanted To.wav" WAVE
INDEX 01 00:00:00
TRACK 11 AUDIO
TITLE "One Ounce Of Prevention"
PERFORMER "Bobby Patterson"
INDEX 00 02:26:70
FILE "11 - One Ounce Of Prevention.wav" WAVE
INDEX 01 00:00:00
TRACK 12 AUDIO
TITLE "This Whole Funky World Is A Ghetto"
PERFORMER "Bobby Patterson"
INDEX 00 03:01:55
FILE "12 - This Whole Funky World Is A Ghetto.wav" WAVE
INDEX 01 00:00:00
TRACK 13 AUDIO
TITLE "What Goes Around Comes Around"
PERFORMER "Bobby Patterson"
INDEX 00 03:43:53
FILE "13 - What Goes Around Comes Around.wav" WAVE
INDEX 01 00:00:00
TRACK 14 AUDIO
TITLE "It Takes Two To Do Wrong"
PERFORMER "Bobby Patterson"
INDEX 00 02:48:27
FILE "14 - It Takes Two To Do Wrong.wav" WAVE
INDEX 01 00:00:00
TRACK 15 AUDIO
TITLE "Take Time To Know The Truth"
PERFORMER "Bobby Patterson"
INDEX 00 02:04:40
FILE "15 - Take Time To Know The Truth.wav" WAVE
INDEX 01 00:00:00
TRACK 16 AUDIO
TITLE "I'm In The Wrong"
PERFORMER "Bobby Patterson"
INDEX 00 03:38:70
FILE "16 - I'm In The Wrong.wav" WAVE
INDEX 01 00:00:00
TRACK 17 AUDIO
TITLE "If Love Can't Do It (It Can't Be Done)"
PERFORMER "Bobby Patterson"
INDEX 00 04:31:30
FILE "17 - If Love Can't Do It (It Can't Be Done).wav" WAVE
INDEX 01 00:00:00
TRACK 18 AUDIO
TITLE "I Got A Suspicion"
PERFORMER "Bobby Patterson"
INDEX 00 02:55:15
FILE "18 - I Got A Suspicion.wav" WAVE
INDEX 01 00:00:00
TRACK 19 AUDIO
TITLE "Right Place, Wrong Time"
PERFORMER "Bobby Patterson"
INDEX 00 04:02:55
FILE "19 - Right Place, Wrong Time.wav" WAVE
INDEX 01 00:00:00
TRACK 20 AUDIO
TITLE "She Don't Have To See You (To See Through You) (Alternate Mix)"
PERFORMER "Bobby Patterson"
INDEX 00 03:33:08
FILE "20 - She Don't Have To See You (To See Through You) (Alternate Mix).wav" WAVE
INDEX 01 00:00:00
Приватный:
Нет (DHT включён)
Размер:
348.96 Мб (365,914,167 байт) » файлов: 32
Участники:
0 раздают, 0 качают (0 участников всего)
Внешние участники:
2 раздают, 1 качают (3 участников всего) [ Обновить ]
No seeders - write personal message to user M0p94ok. Нет сидеров - пишите личное сообщение пользователю M0p94ok.
13:26
62
Нет комментариев. Ваш будет первым!