Поиск

(Funk, Soul) [CD] Billy Griffin - Be With Me (1982) - 2014, FLAC (tracks+.cue), lossless

(Funk, Soul) [CD] Billy Griffin - Be With Me (1982) - 2014, FLAC (tracks+.cue), lossless
Треклист:
Billy Griffin - Be With Me (1982) Жанр: Funk, Soul
Носитель: CD
Год издания: 2014
Издатель (лейбл): Funkytowngrooves
Номер по каталогу: FTG-367
Аудиокодек: FLAC (*.flac)
Тип рипа: tracks+.cue
Битрейт аудио: lossless
Продолжительность: 65:50
Rip by JET 1
Наличие сканов в содержимом раздачи: да
Треклист:
01. Be With Me (5:00)
02. Stone's Throw From Heaven (3:07)
03. Hold Me Tighter In The Rain (5:31)
04. Love Is Not A Word (5:56)
05. The Beat Is Getting Stronger (4:35)
06. 2nd Day Love Story (6:06)
07. Breaking Out (6:33)
08. Understand (4:53)
09. Hold Me Tighter In The Rain (7'') (3:59)
10. Be With Me (7'') (3:53)
11. Be With Me (12'') (5:15)
12. Be With Me (Special Club Mix) (6:57)
13. 2nd Day Love Story (7'') (4:05)
 
 
Лог создания рипа
Exact Audio Copy V1.0 beta 3 from 29. August 2011
EAC extraction logfile from 1. December 2015, 22:38
Billy Griffin / Be With Me
Used drive : GENERIC CDRCB05 Adapter: 4 ID: 0
Read mode : Secure
Utilize accurate stream : Yes
Defeat audio cache : Yes
Make use of C2 pointers : No
Read offset correction : 102
Overread into Lead-In and Lead-Out : No
Fill up missing offset samples with silence : Yes
Delete leading and trailing silent blocks : No
Null samples used in CRC calculations : Yes
Used interface : Native Win32 interface for Win NT & 2000
Gap handling : Appended to previous track
Used output format : User Defined Encoder
Selected bitrate : 1024 kBit/s
Quality : High
Add ID3 tag : No
Command line compressor : C:\Program Files\FLAC\flac.exe
Additional command line options : -8 -V -T "ARTIST=%artist%" -T "TITLE=%title%" -T "ALBUM=%albumtitle%" -T "DATE=%year%" -T "TRACKNUMBER=%tracknr%" -T "GENRE=%genre%" -T "PERFORMER=%albuminterpret%" -T "COMPOSER=%composer%" %haslyrics%--tag-from-file=LYRICS="%lyricsfile%"%haslyrics% -T "ALBUMARTIST=%albumartist%" -T "DISCNUMBER=%cdnumber%" -T "TOTALDISCS=%totalcds%" -T "TOTALTRACKS=%numtracks%" -T "COMMENT=%comment%" %source% -o %dest%
TOC of the extracted CD
Track | Start | Length | Start sector | End sector
---------------------------------------------------------
1 | 0:00.00 | 5:00.00 | 0 | 22499
2 | 5:00.00 | 3:06.70 | 22500 | 36519
3 | 8:06.70 | 5:31.18 | 36520 | 61362
4 | 13:38.13 | 5:55.41 | 61363 | 88028
5 | 19:33.54 | 4:34.59 | 88029 | 108637
6 | 24:08.38 | 6:05.71 | 108638 | 136083
7 | 30:14.34 | 6:33.01 | 136084 | 165559
8 | 36:47.35 | 4:52.43 | 165560 | 187502
9 | 41:40.03 | 3:59.25 | 187503 | 205452
10 | 45:39.28 | 3:53.06 | 205453 | 222933
11 | 49:32.34 | 5:15.03 | 222934 | 246561
12 | 54:47.37 | 6:56.64 | 246562 | 277825
13 | 61:44.26 | 4:05.27 | 277826 | 296227
Track 1
Filename F:\WAV\Billy Griffin • Be With Me (1982) [2014 FTG]\01 - Be With Me.wav
Pre-gap length 0:00:02.00
Peak level 100.0 %
Extraction speed 2.5 X
Track quality 100.0 %
Test CRC E6F2B41F
Copy CRC E6F2B41F
Accurately ripped (confidence 4) [B7A71AFD] (AR v2)
Copy OK
Track 2
Filename F:\WAV\Billy Griffin • Be With Me (1982) [2014 FTG]\02 - Stone's Throw From Heaven.wav
Pre-gap length 0:00:01.32
Peak level 97.7 %
Extraction speed 2.5 X
Track quality 100.0 %
Test CRC 8FC8840E
Copy CRC 8FC8840E
Accurately ripped (confidence 4) [5F06CAFA] (AR v2)
Copy OK
Track 3
Filename F:\WAV\Billy Griffin • Be With Me (1982) [2014 FTG]\03 - Hold Me Tighter In The Rain.wav
Pre-gap length 0:00:01.32
Peak level 98.5 %
Extraction speed 3.0 X
Track quality 100.0 %
Test CRC 61B18E9E
Copy CRC 61B18E9E
Accurately ripped (confidence 4) [108117FC] (AR v2)
Copy OK
Track 4
Filename F:\WAV\Billy Griffin • Be With Me (1982) [2014 FTG]\04 - Love Is Not A Word.wav
Pre-gap length 0:00:01.32
Peak level 99.7 %
Extraction speed 3.0 X
Track quality 99.9 %
Test CRC 3E7E734C
Copy CRC 3E7E734C
Accurately ripped (confidence 4) [DE3BF6FC] (AR v2)
Copy OK
Track 5
Filename F:\WAV\Billy Griffin • Be With Me (1982) [2014 FTG]\05 - The Beat Is Getting Stronger.wav
Pre-gap length 0:00:01.32
Peak level 98.6 %
Extraction speed 3.1 X
Track quality 100.0 %
Test CRC E5B37DFB
Copy CRC E5B37DFB
Accurately ripped (confidence 4) [E483B67D] (AR v2)
Copy OK
Track 6
Filename F:\WAV\Billy Griffin • Be With Me (1982) [2014 FTG]\06 - 2nd Day Love Story.wav
Pre-gap length 0:00:01.32
Peak level 99.6 %
Extraction speed 3.3 X
Track quality 100.0 %
Test CRC 2CB636A9
Copy CRC 2CB636A9
Accurately ripped (confidence 4) [8E13EA71] (AR v2)
Copy OK
Track 7
Filename F:\WAV\Billy Griffin • Be With Me (1982) [2014 FTG]\07 - Breaking Out.wav
Pre-gap length 0:00:01.32
Peak level 99.2 %
Extraction speed 3.7 X
Track quality 100.0 %
Test CRC 86CB8A68
Copy CRC 86CB8A68
Accurately ripped (confidence 4) [F864031A] (AR v2)
Copy OK
Track 8
Filename F:\WAV\Billy Griffin • Be With Me (1982) [2014 FTG]\08 - Understand.wav
Pre-gap length 0:00:01.33
Peak level 98.8 %
Extraction speed 3.7 X
Track quality 100.0 %
Test CRC C8060272
Copy CRC C8060272
Accurately ripped (confidence 4) [00B745B6] (AR v2)
Copy OK
Track 9
Filename F:\WAV\Billy Griffin • Be With Me (1982) [2014 FTG]\09 - Hold Me Tighter In The Rain (7'').wav
Pre-gap length 0:00:01.32
Peak level 100.0 %
Extraction speed 4.1 X
Track quality 100.0 %
Test CRC 513FBD32
Copy CRC 513FBD32
Accurately ripped (confidence 4) [71F9C34E] (AR v2)
Copy OK
Track 10
Filename F:\WAV\Billy Griffin • Be With Me (1982) [2014 FTG]\10 - Be With Me (7'').wav
Pre-gap length 0:00:01.32
Peak level 100.0 %
Extraction speed 3.8 X
Track quality 100.0 %
Test CRC D2C52AD8
Copy CRC D2C52AD8
Accurately ripped (confidence 4) [3A9F301C] (AR v2)
Copy OK
Track 11
Filename F:\WAV\Billy Griffin • Be With Me (1982) [2014 FTG]\11 - Be With Me (12'').wav
Pre-gap length 0:00:01.32
Peak level 99.8 %
Extraction speed 3.8 X
Track quality 99.9 %
Test CRC 44231DAE
Copy CRC 44231DAE
Accurately ripped (confidence 4) [F3DCF1DF] (AR v2)
Copy OK
Track 12
Filename F:\WAV\Billy Griffin • Be With Me (1982) [2014 FTG]\12 - Be With Me (Special Club Mix).wav
Pre-gap length 0:00:01.32
Peak level 99.5 %
Extraction speed 4.2 X
Track quality 100.0 %
Test CRC 4EFD50D6
Copy CRC 4EFD50D6
Accurately ripped (confidence 4) [C6460DCB] (AR v2)
Copy OK
Track 13
Filename F:\WAV\Billy Griffin • Be With Me (1982) [2014 FTG]\13 - 2nd Day Love Story (7'').wav
Pre-gap length 0:00:01.32
Peak level 100.0 %
Extraction speed 3.8 X
Track quality 99.9 %
Test CRC B042E383
Copy CRC B042E383
Accurately ripped (confidence 3) [6DC68274] (AR v2)
Copy OK
All tracks accurately ripped
No errors occurred
End of status report
==== Log checksum 159FDC434E8EA251B82E5AC29E823312530B48963CEB604F4153947C7D668F73 ====
 
Содержание индексной карты (.CUE)
REM GENRE Funk
REM DATE 1982
REM DISCID AD0F6D0D
REM COMMENT "ExactAudioCopy v1.0b3"
PERFORMER "Billy Griffin"
TITLE "Be With Me"
FILE "01 - Be With Me.wav" WAVE
TRACK 01 AUDIO
TITLE "Be With Me"
PERFORMER "Billy Griffin"
INDEX 01 00:00:00
TRACK 02 AUDIO
TITLE "Stone's Throw From Heaven"
PERFORMER "Billy Griffin"
INDEX 00 04:58:43
FILE "02 - Stone's Throw From Heaven.wav" WAVE
INDEX 01 00:00:00
TRACK 03 AUDIO
TITLE "Hold Me Tighter In The Rain"
PERFORMER "Billy Griffin"
INDEX 00 03:05:38
FILE "03 - Hold Me Tighter In The Rain.wav" WAVE
INDEX 01 00:00:00
TRACK 04 AUDIO
TITLE "Love Is Not A Word"
PERFORMER "Billy Griffin"
INDEX 00 05:29:61
FILE "04 - Love Is Not A Word.wav" WAVE
INDEX 01 00:00:00
TRACK 05 AUDIO
TITLE "The Beat Is Getting Stronger"
PERFORMER "Billy Griffin"
INDEX 00 05:54:09
FILE "05 - The Beat Is Getting Stronger.wav" WAVE
INDEX 01 00:00:00
TRACK 06 AUDIO
TITLE "2nd Day Love Story"
PERFORMER "Billy Griffin"
INDEX 00 04:33:27
FILE "06 - 2nd Day Love Story.wav" WAVE
INDEX 01 00:00:00
TRACK 07 AUDIO
TITLE "Breaking Out"
PERFORMER "Billy Griffin"
INDEX 00 06:04:39
FILE "07 - Breaking Out.wav" WAVE
INDEX 01 00:00:00
TRACK 08 AUDIO
TITLE "Understand"
PERFORMER "Billy Griffin"
INDEX 00 06:31:43
FILE "08 - Understand.wav" WAVE
INDEX 01 00:00:00
TRACK 09 AUDIO
TITLE "Hold Me Tighter In The Rain (7'')"
PERFORMER "Billy Griffin"
INDEX 00 04:51:11
FILE "09 - Hold Me Tighter In The Rain (7'').wav" WAVE
INDEX 01 00:00:00
TRACK 10 AUDIO
TITLE "Be With Me (7'')"
PERFORMER "Billy Griffin"
INDEX 00 03:57:68
FILE "10 - Be With Me (7'').wav" WAVE
INDEX 01 00:00:00
TRACK 11 AUDIO
TITLE "Be With Me (12'')"
PERFORMER "Billy Griffin"
INDEX 00 03:51:49
FILE "11 - Be With Me (12'').wav" WAVE
INDEX 01 00:00:00
TRACK 12 AUDIO
TITLE "Be With Me (Special Club Mix)"
PERFORMER "Billy Griffin"
INDEX 00 05:13:46
FILE "12 - Be With Me (Special Club Mix).wav" WAVE
INDEX 01 00:00:00
TRACK 13 AUDIO
TITLE "2nd Day Love Story (7'')"
PERFORMER "Billy Griffin"
INDEX 00 06:55:32
FILE "13 - 2nd Day Love Story (7'').wav" WAVE
INDEX 01 00:00:00
Приватный:
Нет (DHT включён)
Размер:
506.15 Мб (530,733,413 байт) » файлов: 22
Участники:
0 раздают, 0 качают (0 участников всего)
Внешние участники:
3 раздают, 1 качают (4 участников всего) [ Обновить ]
No seeders - write personal message to user M0p94ok. Нет сидеров - пишите личное сообщение пользователю M0p94ok.
09:09
122
Нет комментариев. Ваш будет первым!