Поиск

(Funk, R&B) [CD] Rufus featuring Chaka Khan - Rufus featuring Chaka Khan (1975) - 2004 {UICY-9406}, FLAC (tracks+.cue), lossless

(Funk, R&B) [CD] Rufus featuring Chaka Khan - Rufus featuring Chaka Khan (1975) - 2004 {UICY-9406}, FLAC (tracks+.cue), lossless
Треклист:
Rufus featuring Chaka Khan - Rufus featuring Chaka Khan (1975) Жанр: Funk, R&B
Носитель: CD
Страна-производитель диска (релиза): Japan
Год издания: 2004
Издатель (лейбл): Geffen Records
Номер по каталогу: UICY-9406
Аудиокодек: FLAC (*.flac)
Тип рипа: tracks+.cue
Битрейт аудио: lossless
Продолжительность: 39:14
Rip by JET 1
Наличие сканов в содержимом раздачи: да
Треклист:
01. Fool's Paradise (4:43)
02. Have A Good Time (3:23)
03. Ooh I Like Your Loving (3:42)
04. Everybody Has An Aura (3:49)
05. Circles (3:59)
06. Sweet Thing (3:22)
07. Dance Wit Me (4:00)
08. Little Boy Blue (5:07)
09. On Time (3:34)
10. Jive Talkin' (3:35)
На замену
 
 
Лог создания рипа
Exact Audio Copy V1.0 beta 3 from 29. August 2011
EAC extraction logfile from 3. October 2015, 16:13
Rufus & Chaka Khan / Rufus Featuring Chaka Khan
Used drive : GENERIC CDRCB05 Adapter: 4 ID: 0
Read mode : Secure
Utilize accurate stream : Yes
Defeat audio cache : Yes
Make use of C2 pointers : No
Read offset correction : 102
Overread into Lead-In and Lead-Out : No
Fill up missing offset samples with silence : Yes
Delete leading and trailing silent blocks : No
Null samples used in CRC calculations : Yes
Used interface : Native Win32 interface for Win NT & 2000
Gap handling : Appended to previous track
Used output format : User Defined Encoder
Selected bitrate : 1024 kBit/s
Quality : High
Add ID3 tag : No
Command line compressor : C:\Program Files\FLAC\flac.exe
Additional command line options : -8 -V -T "ARTIST=%artist%" -T "TITLE=%title%" -T "ALBUM=%albumtitle%" -T "DATE=%year%" -T "TRACKNUMBER=%tracknr%" -T "GENRE=%genre%" -T "PERFORMER=%albuminterpret%" -T "COMPOSER=%composer%" %haslyrics%--tag-from-file=LYRICS="%lyricsfile%"%haslyrics% -T "ALBUMARTIST=%albumartist%" -T "DISCNUMBER=%cdnumber%" -T "TOTALDISCS=%totalcds%" -T "TOTALTRACKS=%numtracks%" -T "COMMENT=%comment%" %source% -o %dest%
TOC of the extracted CD
Track | Start | Length | Start sector | End sector
---------------------------------------------------------
1 | 0:00.00 | 4:43.10 | 0 | 21234
2 | 4:43.10 | 3:22.40 | 21235 | 36424
3 | 8:05.50 | 3:41.65 | 36425 | 53064
4 | 11:47.40 | 3:49.10 | 53065 | 70249
5 | 15:36.50 | 3:58.72 | 70250 | 88171
6 | 19:35.47 | 3:21.73 | 88172 | 103319
7 | 22:57.45 | 4:00.12 | 103320 | 121331
8 | 26:57.57 | 5:06.50 | 121332 | 144331
9 | 32:04.32 | 3:34.35 | 144332 | 160416
10 | 35:38.67 | 3:35.33 | 160417 | 176574
Track 1
Filename F:\MUSIC\0000POSTS\Rufus Featuring Chaka Khan - Rufus Featuring Chaka Khan (1975) [2004 Japan Mini-CD]\01 - Fool's Paradise.wav
Pre-gap length 0:00:02.00
Peak level 99.8 %
Extraction speed 2.5 X
Track quality 100.0 %
Test CRC 1545377E
Copy CRC 1545377E
Accurately ripped (confidence 2) [303E8F47] (AR v1)
Copy OK
Track 2
Filename F:\MUSIC\0000POSTS\Rufus Featuring Chaka Khan - Rufus Featuring Chaka Khan (1975) [2004 Japan Mini-CD]\02 - Have a Good Time.wav
Pre-gap length 0:00:02.25
Peak level 99.8 %
Extraction speed 2.2 X
Track quality 99.9 %
Test CRC E73C06C2
Copy CRC E73C06C2
Accurately ripped (confidence 2) [7C77679A] (AR v1)
Copy OK
Track 3
Filename F:\MUSIC\0000POSTS\Rufus Featuring Chaka Khan - Rufus Featuring Chaka Khan (1975) [2004 Japan Mini-CD]\03 - Ooh I Like Your Loving.wav
Pre-gap length 0:00:03.08
Peak level 99.8 %
Extraction speed 2.8 X
Track quality 100.0 %
Test CRC 20C34D18
Copy CRC 20C34D18
Accurately ripped (confidence 2) [8B03ED24] (AR v1)
Copy OK
Track 4
Filename F:\MUSIC\0000POSTS\Rufus Featuring Chaka Khan - Rufus Featuring Chaka Khan (1975) [2004 Japan Mini-CD]\04 - Everybody Has an Aura.wav
Pre-gap length 0:00:03.08
Peak level 99.8 %
Extraction speed 3.1 X
Track quality 100.0 %
Test CRC 2DD8CEC8
Copy CRC 2DD8CEC8
Accurately ripped (confidence 2) [A9D2171E] (AR v1)
Copy OK
Track 5
Filename F:\MUSIC\0000POSTS\Rufus Featuring Chaka Khan - Rufus Featuring Chaka Khan (1975) [2004 Japan Mini-CD]\05 - Circles.wav
Pre-gap length 0:00:02.58
Peak level 99.8 %
Extraction speed 3.2 X
Track quality 100.0 %
Test CRC 375AD805
Copy CRC 375AD805
Accurately ripped (confidence 2) [D79388C6] (AR v1)
Copy OK
Track 6
Filename F:\MUSIC\0000POSTS\Rufus Featuring Chaka Khan - Rufus Featuring Chaka Khan (1975) [2004 Japan Mini-CD]\06 - Sweet Thing.wav
Pre-gap length 0:00:03.05
Peak level 99.8 %
Extraction speed 3.2 X
Track quality 100.0 %
Test CRC F92A4379
Copy CRC F92A4379
Accurately ripped (confidence 2) [5D8FA316] (AR v1)
Copy OK
Track 7
Filename F:\MUSIC\0000POSTS\Rufus Featuring Chaka Khan - Rufus Featuring Chaka Khan (1975) [2004 Japan Mini-CD]\07 - Dance Wit Me.wav
Pre-gap length 0:00:03.10
Peak level 99.8 %
Extraction speed 3.3 X
Track quality 100.0 %
Test CRC BB019206
Copy CRC BB019206
Accurately ripped (confidence 2) [A91991CD] (AR v1)
Copy OK
Track 8
Filename F:\MUSIC\0000POSTS\Rufus Featuring Chaka Khan - Rufus Featuring Chaka Khan (1975) [2004 Japan Mini-CD]\08 - Little Boy Blue.wav
Pre-gap length 0:00:02.62
Peak level 99.8 %
Extraction speed 3.6 X
Track quality 100.0 %
Test CRC 62CEFFC8
Copy CRC 62CEFFC8
Accurately ripped (confidence 2) [32D591E6] (AR v1)
Copy OK
Track 9
Filename F:\MUSIC\0000POSTS\Rufus Featuring Chaka Khan - Rufus Featuring Chaka Khan (1975) [2004 Japan Mini-CD]\09 - On Time.wav
Pre-gap length 0:00:02.40
Peak level 99.8 %
Extraction speed 2.8 X
Track quality 99.9 %
Test CRC 7A7E35E1
Copy CRC 7A7E35E1
Accurately ripped (confidence 2) [AA093857] (AR v1)
Copy OK
Track 10
Filename F:\MUSIC\0000POSTS\Rufus Featuring Chaka Khan - Rufus Featuring Chaka Khan (1975) [2004 Japan Mini-CD]\10 - Jive Talkin'.wav
Pre-gap length 0:00:01.45
Peak level 99.8 %
Extraction speed 2.9 X
Track quality 99.9 %
Test CRC 7EF25F19
Copy CRC 7EF25F19
Accurately ripped (confidence 2) [531CECAE] (AR v1)
Copy OK
All tracks accurately ripped
No errors occurred
End of status report
==== Log checksum 30B82A38DF2A8BF3A57354FF9CB60532B6F48DFB47258993A02CC2299F6FC21C ====
 
Содержание индексной карты (.CUE)
REM GENRE R&B
REM DATE 1975
REM DISCID 9609320A
REM COMMENT "ExactAudioCopy v1.0b3"
PERFORMER "Rufus & Chaka Khan"
TITLE "Rufus Featuring Chaka Khan"
FILE "01 - Fool's Paradise.wav" WAVE
TRACK 01 AUDIO
TITLE "Fool's Paradise"
PERFORMER "Rufus & Chaka Khan"
INDEX 01 00:00:00
TRACK 02 AUDIO
TITLE "Have A Good Time"
PERFORMER "Rufus & Chaka Khan"
INDEX 00 04:40:60
FILE "02 - Have A Good Time.wav" WAVE
INDEX 01 00:00:00
TRACK 03 AUDIO
TITLE "Ooh I Like Your Loving"
PERFORMER "Rufus & Chaka Khan"
INDEX 00 03:19:32
FILE "03 - Ooh I Like Your Loving.wav" WAVE
INDEX 01 00:00:00
TRACK 04 AUDIO
TITLE "Everybody Has An Aura"
PERFORMER "Rufus & Chaka Khan"
INDEX 00 03:38:57
FILE "04 - Everybody Has An Aura.wav" WAVE
INDEX 01 00:00:00
TRACK 05 AUDIO
TITLE "Circles"
PERFORMER "Rufus & Chaka Khan"
INDEX 00 03:46:27
FILE "05 - Circles.wav" WAVE
INDEX 01 00:00:00
TRACK 06 AUDIO
TITLE "Sweet Thing"
PERFORMER "Rufus & Chaka Khan"
INDEX 00 03:55:67
FILE "06 - Sweet Thing.wav" WAVE
INDEX 01 00:00:00
TRACK 07 AUDIO
TITLE "Dance Wit Me"
PERFORMER "Rufus & Chaka Khan"
INDEX 00 03:18:63
FILE "07 - Dance Wit Me.wav" WAVE
INDEX 01 00:00:00
TRACK 08 AUDIO
TITLE "Little Boy Blue"
PERFORMER "Rufus & Chaka Khan"
INDEX 00 03:57:25
FILE "08 - Little Boy Blue.wav" WAVE
INDEX 01 00:00:00
TRACK 09 AUDIO
TITLE "On Time"
PERFORMER "Rufus & Chaka Khan"
INDEX 00 05:04:10
FILE "09 - On Time.wav" WAVE
INDEX 01 00:00:00
TRACK 10 AUDIO
TITLE "Jive Talkin'"
PERFORMER "Rufus & Chaka Khan"
INDEX 00 03:32:65
FILE "10 - Jive Talkin'.wav" WAVE
INDEX 01 00:00:00
 
CUETools log
[CUETools log; Date: 12.10.2015 6:33:41; Version: 2.0.9]
[CTDB TOCID: Zk5gzTJrEfhbF9NazZwzOOe37MM-] found.
[ CTDBID ] Status
[ab7a1b4b] (3/3) Accurately ripped
[AccurateRip ID: 000ee113-0076c4f3-9609320a] found.
Track [ CRC ] Status
01 [303e8f47] (2/5) Accurately ripped
02 [7c77679a] (2/5) Accurately ripped
03 [8b03ed24] (2/5) Accurately ripped
04 [a9d2171e] (2/5) Accurately ripped
05 [d79388c6] (2/5) Accurately ripped
06 [5d8fa316] (2/5) Accurately ripped
07 [a91991cd] (2/5) Accurately ripped
08 [32d591e6] (2/5) Accurately ripped
09 [aa093857] (2/5) Accurately ripped
10 [531cecae] (2/5) Accurately ripped
Offsetted by 660:
01 [445ad4db] (3/5) No match but offset
02 [d433860a] (3/5) No match but offset
03 [eb32edac] (3/5) No match but offset
04 [2f775c0e] (3/5) No match but offset
05 [e71bb3ba] (3/5) No match but offset
06 [04eeb526] (3/5) No match but offset
07 [10286141] (3/5) No match but offset
08 [a2868c42] (3/5) No match but offset
09 [7ec3dbaf] (3/5) No match but offset
10 [23a9ba30] (3/5) No match but offset
Track Peak [ CRC32 ] [W/O NULL] [ LOG ]
-- 99,8 [93AE1511] [F8418F2A]
01 99,8 [1545377E] [79D7FBC5] CRC32
02 99,8 [E73C06C2] [6C4A73E2] CRC32
03 99,8 [20C34D18] [DE1532EE] CRC32
04 99,8 [2DD8CEC8] [03710295] CRC32
05 99,8 [375AD805] [B2B5F6D6] CRC32
06 99,8 [F92A4379] [1B32BC0D] CRC32
07 99,8 [BB019206] [EF7C0496] CRC32
08 99,8 [62CEFFC8] [E0FB74BA] CRC32
09 99,8 [7A7E35E1] [D0F81F5A] CRC32
10 99,8 [7EF25F19] [26884C73] CRC32
Приватный:
Нет (DHT включён)
Размер:
295.90 Мб (310,272,241 байт) » файлов: 23
Участники:
42 раздают, 0 качают (42 участников всего)
Внешние участники:
7 раздают, 2 качают (9 участников всего) [ Обновить ]
No seeders - write a personal message to user M0p94ok. Нет сидеров - пишите личное сообщение пользователю M0p94ok.
08:17
73
Нет комментариев. Ваш будет первым!