Поиск

(Funk, R&B) [CD] Brandon Coleman - Self Taught - 2015 (Japan Bonus Track Edition), FLAC (tracks+.cue), lossless

(Funk, R&B) [CD] Brandon Coleman - Self Taught - 2015 (Japan Bonus Track Edition), FLAC (tracks+.cue), lossless
Треклист:
Brandon Coleman - Self Taught
Жанр: Funk, R&B
Носитель: CD
Страна-производитель диска (релиза): Япония
Год издания: 2015
Издатель (лейбл): Beat Records
Номер по каталогу: BRC-492
Аудиокодек: FLAC (*.flac)
Тип рипа: tracks+.cue
Битрейт аудио: lossless
Продолжительность: 36:15
Источник (релизер): vespags (what)
Наличие сканов в содержимом раздачи: нет
Треклист:
01. Never the Same (6:10)
02. The Spaceship Is Leaving (3:09)
03. Moon Butter (4:24)
04. Gotta Be Me (2:58)
05. Driftin' Away (4:59)
06. Set U Free (4:53)
07. Church Socks (3:45)
08. Sol Man (5:57)
 
Лог создания рипа
Exact Audio Copy V1.1 from 23. June 2015
EAC extraction logfile from 5. January 2016, 11:54
Brandon Coleman / Self Taught
Used drive : MATSHITABD-MLT UJ260AF Adapter: 1 ID: 0
Read mode : Secure
Utilize accurate stream : Yes
Defeat audio cache : Yes
Make use of C2 pointers : No
Read offset correction : 103
Overread into Lead-In and Lead-Out : No
Fill up missing offset samples with silence : Yes
Delete leading and trailing silent blocks : No
Null samples used in CRC calculations : Yes
Used interface : Native Win32 interface for Win NT & 2000
Gap handling : Appended to previous track
Used output format : User Defined Encoder
Selected bitrate : 1024 kBit/s
Quality : High
Add ID3 tag : No
Command line compressor : C:\Program Files (x86)\Exact Audio Copy\Flac\flac.exe
Additional command line options : -8 -V -T "ARTIST=%artist%" -T "TITLE=%title%" -T "ALBUM=%albumtitle%" -T "DATE=%year%" -T "TRACKNUMBER=%tracknr%" -T "GENRE=%genre%" -T "PERFORMER=%albuminterpret%" -T "COMPOSER=%composer%" %haslyrics%--tag-from-file=LYRICS="%lyricsfile%"%haslyrics% -T "ALBUMARTIST=%albumartist%" -T "DISCNUMBER=%cdnumber%" -T "TOTALDISCS=%totalcds%" -T "TOTALTRACKS=%numtracks%" -T "COMMENT=%comment%" %source% -o %dest%
TOC of the extracted CD
Track | Start | Length | Start sector | End sector
---------------------------------------------------------
1 | 0:00.00 | 6:10.20 | 0 | 27769
2 | 6:10.20 | 3:08.64 | 27770 | 41933
3 | 9:19.09 | 4:23.42 | 41934 | 61700
4 | 13:42.51 | 2:58.30 | 61701 | 75080
5 | 16:41.06 | 4:58.38 | 75081 | 97468
6 | 21:39.44 | 4:53.30 | 97469 | 119473
7 | 26:32.74 | 3:44.44 | 119474 | 136317
8 | 30:17.43 | 5:56.44 | 136318 | 163061
Track 1
Filename C:\Brandon Coleman - Self Taught (2015) [FLAC] {BRC-492}\01 - Never The Same.wav
Pre-gap length 0:00:02.00
Peak level 100.0 %
Extraction speed 2.6 X
Track quality 100.0 %
Test CRC 1BCA942C
Copy CRC 1BCA942C
Accurately ripped (confidence 1) [2D0EB47E] (AR v2)
Copy OK
Track 2
Filename C:\Brandon Coleman - Self Taught (2015) [FLAC] {BRC-492}\02 - The Spaceship Is Leaving.wav
Peak level 100.0 %
Extraction speed 2.7 X
Track quality 100.0 %
Test CRC 2ED5A25A
Copy CRC 2ED5A25A
Accurately ripped (confidence 1) [87855F7F] (AR v2)
Copy OK
Track 3
Filename C:\Brandon Coleman - Self Taught (2015) [FLAC] {BRC-492}\03 - Moon Butter.wav
Peak level 100.0 %
Extraction speed 3.0 X
Track quality 100.0 %
Test CRC D353F061
Copy CRC D353F061
Accurately ripped (confidence 1) [3055D814] (AR v2)
Copy OK
Track 4
Filename C:\Brandon Coleman - Self Taught (2015) [FLAC] {BRC-492}\04 - Gotta Be Me.wav
Peak level 100.0 %
Extraction speed 3.0 X
Track quality 100.0 %
Test CRC 6352642C
Copy CRC 6352642C
Accurately ripped (confidence 1) [3DADF357] (AR v2)
Copy OK
Track 5
Filename C:\Brandon Coleman - Self Taught (2015) [FLAC] {BRC-492}\05 - Driftin' Away.wav
Peak level 100.0 %
Extraction speed 3.4 X
Track quality 100.0 %
Test CRC 87BBC1E7
Copy CRC 87BBC1E7
Accurately ripped (confidence 1) [E6488A5E] (AR v2)
Copy OK
Track 6
Filename C:\Brandon Coleman - Self Taught (2015) [FLAC] {BRC-492}\06 - Set U Free.wav
Peak level 100.0 %
Extraction speed 3.7 X
Track quality 100.0 %
Test CRC CB8FDFD1
Copy CRC CB8FDFD1
Accurately ripped (confidence 1) [CCEFBDF9] (AR v2)
Copy OK
Track 7
Filename C:\Brandon Coleman - Self Taught (2015) [FLAC] {BRC-492}\07 - Church Socks.wav
Peak level 100.0 %
Extraction speed 3.8 X
Track quality 100.0 %
Test CRC 8E383F15
Copy CRC 8E383F15
Accurately ripped (confidence 1) [15F939D4] (AR v2)
Copy OK
Track 8
Filename C:\Brandon Coleman - Self Taught (2015) [FLAC] {BRC-492}\08 - Sol Man.wav
Pre-gap length 0:00:03.00
Peak level 100.0 %
Extraction speed 3.4 X
Track quality 99.9 %
Test CRC D5B2A2BD
Copy CRC D5B2A2BD
Cannot be verified as accurate (confidence 1) [BA414A5B], AccurateRip returned [6F1E7CF5] (AR v2)
Copy OK
7 track(s) accurately ripped
1 track(s) could not be verified as accurate
Some tracks could not be verified as accurate
No errors occurred
End of status report
---- CUETools DB Plugin V2.1.6
[CTDB TOCID: 8xpfeqp9vmE8yS4gjy_a83O_kuQ-] found
Submit result: 8xpfeqp9vmE8yS4gjy_a83O_kuQ- has been confirmed
Track | CTDB Status
1 | (2/2) Accurately ripped
2 | (2/2) Accurately ripped
3 | (2/2) Accurately ripped
4 | (2/2) Accurately ripped
5 | (2/2) Accurately ripped
6 | (2/2) Accurately ripped
7 | (2/2) Accurately ripped
8 | (2/2) Accurately ripped
==== Log checksum 0691738049E5A1A428AD34A8D5496FFCEBF66F093A2C15342D1469BA1D2D3A61 ====
 
Содержание индексной карты (.CUE)
REM GENRE Jazz
REM DATE 2015
REM DISCID 57087E08
REM COMMENT "ExactAudioCopy v1.1"
PERFORMER "Brandon Coleman"
TITLE "Self Taught"
FILE "01 - Never the Same.wav" WAVE
TRACK 01 AUDIO
TITLE "Never the Same"
PERFORMER "Brandon Coleman"
INDEX 01 00:00:00
FILE "02 - The Spaceship Is Leaving.wav" WAVE
TRACK 02 AUDIO
TITLE "The Spaceship Is Leaving"
PERFORMER "Brandon Coleman"
INDEX 01 00:00:00
FILE "03 - Moon Butter.wav" WAVE
TRACK 03 AUDIO
TITLE "Moon Butter"
PERFORMER "Brandon Coleman"
INDEX 01 00:00:00
FILE "04 - Gotta Be Me.wav" WAVE
TRACK 04 AUDIO
TITLE "Gotta Be Me"
PERFORMER "Brandon Coleman"
INDEX 01 00:00:00
FILE "05 - Driftin' Away.wav" WAVE
TRACK 05 AUDIO
TITLE "Driftin' Away"
PERFORMER "Brandon Coleman"
INDEX 01 00:00:00
FILE "06 - Set U Free.wav" WAVE
TRACK 06 AUDIO
TITLE "Set U Free"
PERFORMER "Brandon Coleman"
INDEX 01 00:00:00
FILE "07 - Church Socks.wav" WAVE
TRACK 07 AUDIO
TITLE "Church Socks"
PERFORMER "Brandon Coleman"
INDEX 01 00:00:00
TRACK 08 AUDIO
TITLE "Sol Man"
PERFORMER "Brandon Coleman"
INDEX 00 03:41:44
FILE "08 - Sol Man.wav" WAVE
INDEX 01 00:00:00
 
Отчет CUETools
[CUETools log; Date: 09.01.2016 12:56:08; Version: 2.1.5]
[CTDB TOCID: 8xpfeqp9vmE8yS4gjy_a83O_kuQ-] found.
Track | CTDB Status
1 | (3/3) Accurately ripped
2 | (3/3) Accurately ripped
3 | (3/3) Accurately ripped
4 | (3/3) Accurately ripped
5 | (3/3) Accurately ripped
6 | (3/3) Accurately ripped
7 | (3/3) Accurately ripped
8 | (3/3) Accurately ripped
[AccurateRip ID: 000b0779-0048fac2-57087e08] found.
Track [ CRC | V2 ] Status
01 [34235e0e|2d0eb47e] (0+1/1) Accurately ripped
02 [96f88121|87855f7f] (0+1/1) Accurately ripped
03 [5faeee91|3055d814] (0+1/1) Accurately ripped
04 [6a1fd1fa|3dadf357] (0+1/1) Accurately ripped
05 [9bde5f99|e6488a5e] (0+1/1) Accurately ripped
06 [672521d2|ccefbdf9] (0+1/1) Accurately ripped
07 [264c5539|15f939d4] (0+1/1) Accurately ripped
08 [420d8be0|ba414a5b] (0+0/1) No match
Track Peak [ CRC32 ] [W/O NULL] [ LOG ]
-- 100,0 [B1F66F00] [2255507A]
01 100,0 [1BCA942C] [16F0B13A] CRC32
02 100,0 [2ED5A25A] [577F33A9] CRC32
03 100,0 [D353F061] [93A986F2] CRC32
04 100,0 [6352642C] [F6F0CE93] CRC32
05 100,0 [87BBC1E7] [A791CB04] CRC32
06 100,0 [CB8FDFD1] [BA0650AC] CRC32
07 100,0 [8E383F15] [0F3F4805] CRC32
08 100,0 [D5B2A2BD] [0B281538] CRC32
Приватный:
Нет (DHT включён)
Размер:
232.70 Мб (244,002,375 байт) » файлов: 14
Участники:
0 раздают, 0 качают (0 участников всего)
Внешние участники:
5 раздают, 1 качают (6 участников всего) [ Обновить ]
Есть вопросы - пишите личное сообщение пользователю M0p94ok.
09:24
56
Нет комментариев. Ваш будет первым!