Поиск

(Funk, Fusion) The Brecker Brothers - Don't Stop The Music (1995 remaster) - 1977, FLAC (tracks+.cue), lossless

Треклист:
The Brecker Brothers - Don't Stop The Music
Жанр: Funk, Fusion
Год выпуска диска: 1977
Производитель диска: France \ BMG
Аудио кодек: FLAC
Тип рипа: tracks+.cue
Битрейт аудио: lossless
Продолжительность: 41:32
Треклист:
01 - Finger Lickin' Good [04:01]
02 - Funky Sea, Funkey Dew [06:13]
03 - As Long As I've Got Your Love [04:16]
04 - Squids [07:44]
05 - Don't Stop The Music [06:34]
06 - Petals [04:23]
07 - Tabula Rasa [08:18]

Собственноручный рип с оригинального диска от funky_cat!
 
Log EAC
Exact Audio Copy V0.99 prebeta 5 from 4. May 2009
EAC extraction logfile from 28. August 2010, 18:51
The Brecker Brothers / Don't Stop The Music
Used drive : Optiarc DVD RW AD-5200A Adapter: 1 ID: 0
Read mode : Secure
Utilize accurate stream : Yes
Defeat audio cache : Yes
Make use of C2 pointers : No
Read offset correction : 48
Overread into Lead-In and Lead-Out : No
Fill up missing offset samples with silence : Yes
Delete leading and trailing silent blocks : No
Null samples used in CRC calculations : No
Used interface : Native Win32 interface for Win NT & 2000
Gap handling : Appended to previous track
Used output format : User Defined Encoder
Selected bitrate : 128 kBit/s
Quality : High
Add ID3 tag : No
Command line compressor : C:\Program Files\FLAC\flac.exe
Additional command line options : -5 -V -T "ARTIST=%a" -T "TITLE=%t" -T "ALBUM=%g" -T "DATE=%y" -T "TRACKNUMBER=%n" -T "GENRE=%m" -T "COMMENT=Ripped by andygrakoff aka yetiisyou" %s
TOC of the extracted CD
Track | Start | Length | Start sector | End sector
---------------------------------------------------------
1 | 0:00.37 | 4:01.43 | 37 | 18154
2 | 4:02.05 | 6:13.50 | 18155 | 46179
3 | 10:15.55 | 4:16.07 | 46180 | 65386
4 | 14:31.62 | 7:44.40 | 65387 | 100226
5 | 22:16.27 | 6:34.10 | 100227 | 129786
6 | 28:50.37 | 4:23.68 | 129787 | 149579
7 | 33:14.30 | 8:18.45 | 149580 | 186974
Track 1
Filename E:\!Rips\The Brecker Brothers - Don't Stop The Music (74321257592) (1977 (1995 remaster)\01 – Finger Lickin' Good.wav
Pre-gap length 0:00:02.49
Peak level 100.0 %
Track quality 100.0 %
Test CRC 4D1FCDAA
Copy CRC 4D1FCDAA
Cannot be verified as accurate (confidence 3) [541804E6], AccurateRip returned [B61D9160]
Copy OK
Track 2
Filename E:\!Rips\The Brecker Brothers - Don't Stop The Music (74321257592) (1977 (1995 remaster)\02 – Funky Sea, Funkey Dew.wav
Pre-gap length 0:00:02.62
Peak level 86.6 %
Track quality 100.0 %
Test CRC 64C7BD21
Copy CRC 64C7BD21
Cannot be verified as accurate (confidence 3) [99EC40B7], AccurateRip returned [47CA6211]
Copy OK
Track 3
Filename E:\!Rips\The Brecker Brothers - Don't Stop The Music (74321257592) (1977 (1995 remaster)\03 – As Long As I've Got Your Love.wav
Pre-gap length 0:00:01.98
Peak level 84.4 %
Track quality 100.0 %
Test CRC 85090A12
Copy CRC 85090A12
Cannot be verified as accurate (confidence 3) [280BD614], AccurateRip returned [9C191446]
Copy OK
Track 4
Filename E:\!Rips\The Brecker Brothers - Don't Stop The Music (74321257592) (1977 (1995 remaster)\04 – Squids.wav
Pre-gap length 0:00:02.14
Peak level 98.3 %
Track quality 99.9 %
Test CRC 6B26F7D4
Copy CRC 6B26F7D4
Cannot be verified as accurate (confidence 3) [4553257D], AccurateRip returned [C755EC75]
Copy OK
Track 5
Filename E:\!Rips\The Brecker Brothers - Don't Stop The Music (74321257592) (1977 (1995 remaster)\05 – Don't Stop The Music.wav
Pre-gap length 0:00:01.94
Peak level 100.0 %
Track quality 99.9 %
Test CRC 3CCBF5EB
Copy CRC 3CCBF5EB
Cannot be verified as accurate (confidence 3) [88454E3A], AccurateRip returned [F3899BCE]
Copy OK
Track 6
Filename E:\!Rips\The Brecker Brothers - Don't Stop The Music (74321257592) (1977 (1995 remaster)\06 – Petals.wav
Pre-gap length 0:00:04.34
Peak level 69.4 %
Track quality 100.0 %
Test CRC 7F78DD54
Copy CRC 7F78DD54
Cannot be verified as accurate (confidence 3) [BE7DD401], AccurateRip returned [8EACA657]
Copy OK
Track 7
Filename E:\!Rips\The Brecker Brothers - Don't Stop The Music (74321257592) (1977 (1995 remaster)\07 – Tabula Rasa.wav
Pre-gap length 0:00:03.69
Peak level 81.7 %
Track quality 100.0 %
Test CRC 01A42A05
Copy CRC 01A42A05
Cannot be verified as accurate (confidence 3) [E649CA92], AccurateRip returned [16143470]
Copy OK
No tracks could be verified as accurate
You may have a different pressing from the one(s) in the database
No errors occurred
End of status report
 
CUE
REM GENRE Fusion
REM DATE 1977
REM DISCID 6109BD07
REM COMMENT "ExactAudioCopy v0.99pb5"
PERFORMER "The Brecker Brothers"
TITLE "Don't Stop The Music"
FILE "01 – Finger Lickin' Good.wav" WAVE
TRACK 01 AUDIO
TITLE "Finger Lickin' Good"
PERFORMER "The Brecker Brothers"
PREGAP 00:00:37
INDEX 01 00:00:00
TRACK 02 AUDIO
TITLE "Funky Sea, Funkey Dew"
PERFORMER "The Brecker Brothers"
INDEX 00 03:58:71
FILE "02 – Funky Sea, Funkey Dew.wav" WAVE
INDEX 01 00:00:00
TRACK 03 AUDIO
TITLE "As Long As I've Got Your Love"
PERFORMER "The Brecker Brothers"
INDEX 00 06:11:51
FILE "03 – As Long As I've Got Your Love.wav" WAVE
INDEX 01 00:00:00
TRACK 04 AUDIO
TITLE "Squids"
PERFORMER "The Brecker Brothers"
INDEX 00 04:13:71
FILE "04 – Squids.wav" WAVE
INDEX 01 00:00:00
TRACK 05 AUDIO
TITLE "Don't Stop The Music"
PERFORMER "The Brecker Brothers"
INDEX 00 07:42:44
FILE "05 – Don't Stop The Music.wav" WAVE
INDEX 01 00:00:00
TRACK 06 AUDIO
TITLE "Petals"
PERFORMER "The Brecker Brothers"
INDEX 00 06:29:59
FILE "06 – Petals.wav" WAVE
INDEX 01 00:00:00
TRACK 07 AUDIO
TITLE "Tabula Rasa"
PERFORMER "The Brecker Brothers"
INDEX 00 04:20:16
FILE "07 – Tabula Rasa.wav" WAVE
INDEX 01 00:00:00
20:37
688
Нет комментариев. Ваш будет первым!