Поиск

(Funk) [CD] Switch - Switch II - 1979, WavPack (image+.cue), lossless

(Funk) [CD] Switch - Switch II - 1979, WavPack (image+.cue), lossless
Треклист:
Switch / Switch II
Жанр: Funk
Носитель: CD
Страна-производитель диска (релиза): EU
Год издания: 1979 (2012)
Издатель (лейбл): PTG Records
Номер по каталогу: 34128
Страна исполнителя (группы): US
Аудиокодек: WavPack (*.wv)
Тип рипа: image+.cue
Битрейт аудио: lossless
Продолжительность: 00:36:36
Источник (релизер): AUDELAS KINGDOM
Наличие сканов в содержимом раздачи: нет
01. You're the One for Me
02. Next to You
03. Best Beat in Town
04. Calling on All Girls
05. Go on Doin' What You Feel
06. Fallin'
07. I Call Your Name
 
Лог создания рипа
Exact Audio Copy V1.3 from 2. September 2016
EAC extraction logfile from 5. September 2017, 1:42
Switch / Switch II
Used drive : ATAPI iHAS124 B Adapter: 1 ID: 1
Read mode : Secure
Utilize accurate stream : Yes
Defeat audio cache : Yes
Make use of C2 pointers : No
Read offset correction : 6
Overread into Lead-In and Lead-Out : No
Fill up missing offset samples with silence : Yes
Delete leading and trailing silent blocks : No
Null samples used in CRC calculations : Yes
Used interface : Installed external ASPI interface
Used output format : User Defined Encoder
Selected bitrate : 1024 kBit/s
Quality : High
Add ID3 tag : No
Command line compressor : C:\Program Files\WAV PACK\wavpack.exe
Additional command line options : -hm -w "Genre=%genre%" -w "Artist=%artist%" -w "Title=%title%" -w "Album=%albumtitle%" -w "Year=%year%" -w "Track=%tracknr%" -w "Comment=%comment%" %source% %dest%
TOC of the extracted CD
Track | Start | Length | Start sector | End sector
---------------------------------------------------------
1 | 0:00.00 | 4:30.06 | 0 | 20255
2 | 4:30.06 | 4:08.12 | 20256 | 38867
3 | 8:38.18 | 4:46.42 | 38868 | 60359
4 | 13:24.60 | 4:29.55 | 60360 | 80589
5 | 17:54.40 | 5:35.12 | 80590 | 105726
6 | 23:29.52 | 5:44.50 | 105727 | 131576
7 | 29:14.27 | 7:20.15 | 131577 | 164591
Range status and errors
Selected range
Filename C:\Users\XXXXX\Downloads\Switch - Switch II (1979 - 2012 Reissue - WV)\Switch - Switch II.wav
Peak level 87.9 %
Extraction speed 6.7 X
Range quality 100.0 %
Test CRC C47DDB3C
Copy CRC C47DDB3C
Copy OK
No errors occurred
AccurateRip summary
Track 1 not present in database
Track 2 not present in database
Track 3 not present in database
Track 4 not present in database
Track 5 not present in database
Track 6 not present in database
Track 7 not present in database
None of the tracks are present in the AccurateRip database
End of status report
==== Log checksum 068EE4C0DB02651C5C8A79251988CA623FCA8C42F32A9166921A8B7D87B6797F ====
Приватный:
Нет (DHT включён)
Размер:
220.99 Мб (231,719,600 байт) » файлов: 6
Участники:
0 раздают, 0 качают (0 участников всего)
Внешние участники:
1 раздают, 0 качают (1 участников всего) [ Обновить ]
Есть вопросы - пишите личное сообщение пользователю M0p94ok.
14:30
56
Нет комментариев. Ваш будет первым!