Поиск

(Funk) Banda Black Rio - Gafieira Universal - 1978 - 2001, FLAC (tracks+.cue) lossless

(Funk) Banda Black Rio - Gafieira Universal - 1978 - 2001, FLAC (tracks+.cue) lossless
Треклист:
Banda Black Rio - Gafieira Universal - 1978
Жанр: Funk
Страна-производитель диска: Brazil
Год издания диска: 2001
Издатель (лейбл): Bmg Int'l
Страна: Brazil
Аудио кодек: FLAC (*.flac)
Тип рипа: tracks+.cue
Битрейт аудио: lossless
Продолжительность: 33:01
Источник (релизер): Сеть
Наличие сканов в содержимом раздачи: да
Треклист:
01. Chega Mais
02. Vidigal
03. Gafieira Universal
04. Tico Tico No Fubá
05. Ibeijada
06. Rio De Fevereiro
07. Dança Do Dia
08. Samboreando
09. Cravo E Canela
10. Expresso Madureira
 
Лог создания рипа
EAC extraction logfile from 18. April 2007, 22:25 for CD
Banda Black Rio / Gafieira Universal
Used drive : HL-DT-STDVDRAM GSA-4167B Adapter: 0 ID: 0
Read mode : Secure with NO C2, accurate stream, disable cache
Read offset correction : 667
Overread into Lead-In and Lead-Out : No
Used output format : c:\Program Files\Exact Audio Copy\flac.exe (User Defined Encoder)
128 kBit/s
Additional command line options : -V -8 -T "artist=%a" -T "title=%t" -T "album=%g" -T "date=%y" -T "tracknumber=%n" -T "genre=%m" %s
Other options :
Fill up missing offset samples with silence : Yes
Delete leading and trailing silent blocks : No
Native Win32 interface for Win NT & 2000
Track 1
Filename e:\Banda Black Rio - Gafieira Universal (1978) [FLAC]\01 - Chega Mais (Imaginei Voce Dancando).wav
Pre-gap length 0:00:02.00
Peak level 99.9 %
Track quality 99.9 %
Test CRC 4DBAB9EE
Copy CRC 4DBAB9EE
Copy OK
Track 2
Filename e:\Banda Black Rio - Gafieira Universal (1978) [FLAC]\02 - Vidigal.wav
Pre-gap length 0:00:01.61
Peak level 97.5 %
Track quality 100.0 %
Test CRC AAD94EC2
Copy CRC AAD94EC2
Copy OK
Track 3
Filename e:\Banda Black Rio - Gafieira Universal (1978) [FLAC]\03 - Gafieira Universal.wav
Pre-gap length 0:00:01.60
Peak level 97.5 %
Track quality 100.0 %
Test CRC 3E5ADCB8
Copy CRC 3E5ADCB8
Copy OK
Track 4
Filename e:\Banda Black Rio - Gafieira Universal (1978) [FLAC]\04 - Tico-Tico no Fuba.wav
Pre-gap length 0:00:01.61
Peak level 97.5 %
Track quality 100.0 %
Test CRC 035DB1BF
Copy CRC 035DB1BF
Copy OK
Track 5
Filename e:\Banda Black Rio - Gafieira Universal (1978) [FLAC]\05 - Ibeijada.wav
Pre-gap length 0:00:01.57
Peak level 97.5 %
Track quality 100.0 %
Test CRC F98D1268
Copy CRC F98D1268
Copy OK
Track 6
Filename e:\Banda Black Rio - Gafieira Universal (1978) [FLAC]\06 - Rio de Fevereiro.wav
Pre-gap length 0:00:01.58
Peak level 98.9 %
Track quality 100.0 %
Test CRC B9222DA1
Copy CRC B9222DA1
Copy OK
Track 7
Filename e:\Banda Black Rio - Gafieira Universal (1978) [FLAC]\07 - Danca do Dia.wav
Pre-gap length 0:00:01.61
Peak level 100.0 %
Track quality 100.0 %
Test CRC 54D279EF
Copy CRC 54D279EF
Copy OK
Track 8
Filename e:\Banda Black Rio - Gafieira Universal (1978) [FLAC]\08 - Samboreando.wav
Pre-gap length 0:00:01.61
Peak level 100.0 %
Track quality 100.0 %
Test CRC 756E39D3
Copy CRC 756E39D3
Copy OK
Track 9
Filename e:\Banda Black Rio - Gafieira Universal (1978) [FLAC]\09 - Cravo e Canela.wav
Pre-gap length 0:00:01.60
Peak level 99.9 %
Track quality 100.0 %
Test CRC 0950D3A6
Copy CRC 0950D3A6
Copy OK
Track 10
Filename e:\Banda Black Rio - Gafieira Universal (1978) [FLAC]\10 - Expresso Madureira.wav
Pre-gap length 0:00:01.60
Peak level 100.0 %
Track quality 100.0 %
Test CRC 3309D5C7
Copy CRC 3309D5C7
Copy OK
No errors occured
End of status report
 
Содержание индексной карты (.CUE)
REM GENRE Funk
REM DATE 1978
REM DISCID 7A07BC0A
REM COMMENT "ExactAudioCopy v0.95b4"
PERFORMER "Banda Black Rio"
TITLE "Gafieira Universal"
FILE "01 - Chega Mais (Imaginei Voce Dancando).wav" WAVE
TRACK 01 AUDIO
TITLE "Chega Mais (Imaginei Voce Dancando)"
PERFORMER "Banda Black Rio"
INDEX 01 00:00:00
TRACK 02 AUDIO
TITLE "Vidigal"
PERFORMER "Banda Black Rio"
INDEX 00 02:51:54
FILE "02 - Vidigal.wav" WAVE
INDEX 01 00:00:00
TRACK 03 AUDIO
TITLE "Gafieira Universal"
PERFORMER "Banda Black Rio"
INDEX 00 03:37:55
FILE "03 - Gafieira Universal.wav" WAVE
INDEX 01 00:00:00
TRACK 04 AUDIO
TITLE "Tico-Tico no Fuba"
PERFORMER "Banda Black Rio"
INDEX 00 03:07:40
FILE "04 - Tico-Tico no Fuba.wav" WAVE
INDEX 01 00:00:00
TRACK 05 AUDIO
TITLE "Ibeijada"
PERFORMER "Banda Black Rio"
INDEX 00 03:35:57
FILE "05 - Ibeijada.wav" WAVE
INDEX 01 00:00:00
TRACK 06 AUDIO
TITLE "Rio de Fevereiro"
PERFORMER "Banda Black Rio"
INDEX 00 03:24:54
FILE "06 - Rio de Fevereiro.wav" WAVE
INDEX 01 00:00:00
TRACK 07 AUDIO
TITLE "Danca do Dia"
PERFORMER "Banda Black Rio"
INDEX 00 03:29:31
FILE "07 - Danca do Dia.wav" WAVE
INDEX 01 00:00:00
TRACK 08 AUDIO
TITLE "Samboreando"
PERFORMER "Banda Black Rio"
INDEX 00 03:04:44
FILE "08 - Samboreando.wav" WAVE
INDEX 01 00:00:00
TRACK 09 AUDIO
TITLE "Cravo e Canela"
PERFORMER "Banda Black Rio"
INDEX 00 03:08:39
FILE "09 - Cravo e Canela.wav" WAVE
INDEX 01 00:00:00
TRACK 10 AUDIO
TITLE "Expresso Madureira"
PERFORMER "Banda Black Rio"
INDEX 00 02:20:65
FILE "10 - Expresso Madureira.wav" WAVE
INDEX 01 00:00:00
 
Лог проверки качества
auCDtect: CD records authenticity detector, version 0.8.2
Copyright (c) 2004 Oleg Berngardt. All rights reserved.
Copyright (c) 2004 Alexander Djourik. All rights reserved.
------------------------------------------------------------
Processing file: [01 - Chega Mais (Imaginei Voce Dancando).wav]
Detected average hi-boundary frequency: 2.016580e+004 Hz
Detected average lo-boundary frequency: 1.358559e+004 Hz
Detected average hi-cut frequency: 2.163976e+004 Hz
Detected average lo-cut frequency: 8.455695e+003 Hz
Maximum probablis boundary frequency: 2.189100e+004 Hz
Coefficient of nonlinearity of a phase: 1.470757e-001
First order smothness: 4.178862e-001
Second order smothness: 4.910569e-001
------------------------------------------------------------
This track looks like CDDA with probability 100%
------------------------------------------------------------
Processing file: [02 - Vidigal.wav]
Detected average hi-boundary frequency: 2.059458e+004 Hz
Detected average lo-boundary frequency: 1.510281e+004 Hz
Detected average hi-cut frequency: 2.168262e+004 Hz
Detected average lo-cut frequency: 1.187832e+004 Hz
Maximum probablis boundary frequency: 2.189100e+004 Hz
Coefficient of nonlinearity of a phase: 5.128085e-002
First order smothness: 5.070423e-001
Second order smothness: 5.723431e-001
------------------------------------------------------------
This track looks like CDDA with probability 100%
------------------------------------------------------------
Processing file: [03 - Gafieira Universal.wav]
Detected average hi-boundary frequency: 2.043126e+004 Hz
Detected average lo-boundary frequency: 1.382164e+004 Hz
Detected average hi-cut frequency: 2.167215e+004 Hz
Detected average lo-cut frequency: 1.402963e+004 Hz
Maximum probablis boundary frequency: 2.189100e+004 Hz
Coefficient of nonlinearity of a phase: 4.366552e-001
First order smothness: 5.312500e-001
Second order smothness: 6.235119e-001
------------------------------------------------------------
This track looks like CDDA with probability 100%
------------------------------------------------------------
Processing file: [04 - Tico-Tico no Fuba.wav]
Detected average hi-boundary frequency: 2.026377e+004 Hz
Detected average lo-boundary frequency: 1.285020e+004 Hz
Detected average hi-cut frequency: 2.168197e+004 Hz
Detected average lo-cut frequency: 9.422032e+003 Hz
Maximum probablis boundary frequency: 2.189100e+004 Hz
Coefficient of nonlinearity of a phase: 1.105964e-001
First order smothness: 4.191462e-001
Second order smothness: 4.463131e-001
------------------------------------------------------------
This track looks like CDDA with probability 100%
------------------------------------------------------------
Processing file: [05 - Ibeijada.wav]
Detected average hi-boundary frequency: 2.036694e+004 Hz
Detected average lo-boundary frequency: 1.390611e+004 Hz
Detected average hi-cut frequency: 2.174367e+004 Hz
Detected average lo-cut frequency: 1.133509e+004 Hz
Maximum probablis boundary frequency: 2.189100e+004 Hz
Coefficient of nonlinearity of a phase: 4.725680e-001
First order smothness: 4.713896e-001
Second order smothness: 4.836512e-001
------------------------------------------------------------
This track looks like CDDA with probability 100%
------------------------------------------------------------
Processing file: [06 - Rio de Fevereiro.wav]
Detected average hi-boundary frequency: 2.049396e+004 Hz
Detected average lo-boundary frequency: 1.507559e+004 Hz
Detected average hi-cut frequency: 2.166806e+004 Hz
Detected average lo-cut frequency: 1.005550e+004 Hz
Maximum probablis boundary frequency: 2.189100e+004 Hz
Coefficient of nonlinearity of a phase: 3.414999e-001
First order smothness: 4.442971e-001
Second order smothness: 5.106101e-001
------------------------------------------------------------
This track looks like CDDA with probability 100%
------------------------------------------------------------
Processing file: [07 - Danca do Dia.wav]
Detected average hi-boundary frequency: 2.028267e+004 Hz
Detected average lo-boundary frequency: 1.275884e+004 Hz
Detected average hi-cut frequency: 2.158672e+004 Hz
Detected average lo-cut frequency: 9.353851e+003 Hz
Maximum probablis boundary frequency: 2.189100e+004 Hz
Coefficient of nonlinearity of a phase: 2.683361e-001
First order smothness: 4.320242e-001
Second order smothness: 4.969789e-001
------------------------------------------------------------
This track looks like CDDA with probability 100%
------------------------------------------------------------
Processing file: [08 - Samboreando.wav]
Detected average hi-boundary frequency: 2.040283e+004 Hz
Detected average lo-boundary frequency: 1.434449e+004 Hz
Detected average hi-cut frequency: 2.165572e+004 Hz
Detected average lo-cut frequency: 1.163272e+004 Hz
Maximum probablis boundary frequency: 2.189100e+004 Hz
Coefficient of nonlinearity of a phase: 4.165753e-001
First order smothness: 4.607407e-001
Second order smothness: 5.473373e-001
------------------------------------------------------------
This track looks like CDDA with probability 100%
------------------------------------------------------------
Processing file: [09 - Cravo e Canela.wav]
Detected average hi-boundary frequency: 2.052578e+004 Hz
Detected average lo-boundary frequency: 1.310859e+004 Hz
Detected average hi-cut frequency: 2.157530e+004 Hz
Detected average lo-cut frequency: 1.235388e+004 Hz
Maximum probablis boundary frequency: 2.189100e+004 Hz
Coefficient of nonlinearity of a phase: 3.611711e-001
First order smothness: 5.544554e-001
Second order smothness: 6.079208e-001
------------------------------------------------------------
This track looks like CDDA with probability 99%
------------------------------------------------------------
Processing file: [10 - Expresso Madureira.wav]
Detected average hi-boundary frequency: 2.055897e+004 Hz
Detected average lo-boundary frequency: 1.427019e+004 Hz
Detected average hi-cut frequency: 2.160054e+004 Hz
Detected average lo-cut frequency: 1.225008e+004 Hz
Maximum probablis boundary frequency: 2.189100e+004 Hz
Coefficient of nonlinearity of a phase: 2.139931e-001
First order smothness: 5.988636e-001
Second order smothness: 4.704545e-001
------------------------------------------------------------
This track looks like CDDA with probability 100%
Доп. информация: http://en.wikipedia.org/wiki/Banda_Black_Rio
19:45
382
Нет комментариев. Ваш будет первым!