Поиск

(funk, afro-beat) VA - Ghana Soundz Volume.2 - Afro-Beat, Funk and Fusion in 70's Ghana - 2007, FLAC (tracks+.cue), lossless

(funk, afro-beat) VA - Ghana Soundz Volume.2 - Afro-Beat, Funk and Fusion in 70's Ghana - 2007, FLAC (tracks+.cue), lossless
Треклист:
Ghana Soundz Volume.2 - Afro-Beat, Funk and Fusion in 70's Ghana
Жанр: funk, afro-beat
Страна-производитель диска: UK
Год издания: 2007
Издатель (лейбл): Soundway Records
Номер по каталогу: SNDWCD003
Страна: Ghana
Аудиокодек: FLAC (*.flac)
Тип рипа: tracks+.cue
Битрейт аудио: lossless
Продолжительность: 01:17
Источник (релизер): What.cd
Наличие сканов в содержимом раздачи: нет
Треклист:
1. Olufeme - Oscar Sulley & The Uhuru Dance Band
2. Atwer Abroba - Joe Mensah
3. Mondo Soul Funky - Ebo Taylor
4. Aboagyewaa - The African Brothers
5. Africa Is Home - Ebo Taylor Jnr.
6. Tamfo Nyi Ekyir - The Sweet Talks
7. Naam - The Ogyatanaa Show Band
8. Agbadza - Christy Azuma & Uppers International
9. No Condition Is Permanent - Bob Pinado & His Sound Casters
10. Boogie On - Marijata
11. Kyekye Pe Aware - K. Frimpong & Vis A Vis
12. Me You One - The Uhuru Dance Band
13. Samarian Bolga - Uppers Chapter 2
14. Omusus Da Fe M'musu - The Apagya Show Band
 
Лог создания рипа
EAC extraction logfile from 24. January 2008, 20:51 for CD
Various Artists / Ghana Soundz v.2
Used drive : TSSTcorpCD/DVDW SH-S182D Adapter: 5 ID: 0
Read mode : Secure with NO C2, accurate stream, disable cache
Read offset correction : 6
Overread into Lead-In and Lead-Out : No
Used output format : C:\Program Files\Exact Audio Copy\flac.exe (User Defined Encoder)
320 kBit/s
Additional command line options : -V -5 -T "artist=%a" -T "title=%t" -T "album=%g" -T "date=%y" -T "tracknumber=%n" -T "genre=%m" %s
Other options :
Fill up missing offset samples with silence : Yes
Delete leading and trailing silent blocks : No
Installed external ASPI interface
Track 1
Filename C:\Documents and Settings\AB\My Documents\VA - Ghana Soundz v.2\01 - Oscar Sulley & The Uhuru Dance Band - Olufeme - Oscar Sulley & The Uhuru Dance Band - Olufeme.wav
Pre-gap length 0:00:02.00
Peak level 95.7 %
Track quality 100.0 %
Test CRC 24026118
Copy CRC 24026118
Copy OK
Track 2
Filename C:\Documents and Settings\AB\My Documents\VA - Ghana Soundz v.2\02 - Joe Mensah - Africa Is Home - Joe Mensah - Africa Is Home.wav
Pre-gap length 0:00:02.00
Peak level 100.0 %
Track quality 100.0 %
Test CRC 164C7AD0
Copy CRC 164C7AD0
Copy OK
Track 3
Filename C:\Documents and Settings\AB\My Documents\VA - Ghana Soundz v.2\03 - Ebo Taylor - Atwer Abroba - Ebo Taylor - Atwer Abroba.wav
Pre-gap length 0:00:02.00
Peak level 98.1 %
Track quality 100.0 %
Test CRC 0B47EEAB
Copy CRC 0B47EEAB
Copy OK
Track 4
Filename C:\Documents and Settings\AB\My Documents\VA - Ghana Soundz v.2\04 - The African Brothers - Sakatumbe - The African Brothers - Sakatumbe.wav
Pre-gap length 0:00:02.00
Peak level 100.0 %
Track quality 100.0 %
Test CRC AAA18EE3
Copy CRC AAA18EE3
Copy OK
Track 5
Filename C:\Documents and Settings\AB\My Documents\VA - Ghana Soundz v.2\05 - Ebo Taylor Jnr. - Mondo Soul Funky - Ebo Taylor Jnr. - Mondo Soul Funky.wav
Pre-gap length 0:00:02.00
Peak level 100.0 %
Track quality 100.0 %
Test CRC 2FDFC879
Copy CRC 2FDFC879
Copy OK
Track 6
Filename C:\Documents and Settings\AB\My Documents\VA - Ghana Soundz v.2\06 - The Sweet Talks - Kyekye Pe Aware - The Sweet Talks - Kyekye Pe Aware.wav
Pre-gap length 0:00:02.00
Peak level 100.0 %
Track quality 100.0 %
Test CRC 0A48B1E7
Copy CRC 0A48B1E7
Copy OK
Track 7
Filename C:\Documents and Settings\AB\My Documents\VA - Ghana Soundz v.2\07 - The Ogyatanaa Show Band - Disco Africa - The Ogyatanaa Show Band - Disco Africa.wav
Pre-gap length 0:00:02.00
Peak level 100.0 %
Track quality 100.0 %
Test CRC 07769019
Copy CRC 07769019
Copy OK
Track 8
Filename C:\Documents and Settings\AB\My Documents\VA - Ghana Soundz v.2\08 - Christy Azuma & Uppers International - Naam - Christy Azuma & Uppers International - Naam.wav
Pre-gap length 0:00:02.00
Peak level 100.0 %
Track quality 100.0 %
Test CRC 02867245
Copy CRC 02867245
Copy OK
Track 9
Filename C:\Documents and Settings\AB\My Documents\VA - Ghana Soundz v.2\09 - Bob Pinado & His Sound Casters - Me, You, One (Means I Love You) - Bob Pinado & His Sound Casters - Me, You, One (Means I Love You).wav
Pre-gap length 0:00:02.00
Peak level 97.6 %
Track quality 99.9 %
Test CRC 3C748E28
Copy CRC 3C748E28
Copy OK
Track 10
Filename C:\Documents and Settings\AB\My Documents\VA - Ghana Soundz v.2\10 - Marijata - No Condition Is Permanent - Marijata - No Condition Is Permanent.wav
Pre-gap length 0:00:02.00
Peak level 98.5 %
Track quality 99.9 %
Test CRC F0D4EFDA
Copy CRC F0D4EFDA
Copy OK
Track 11
Filename C:\Documents and Settings\AB\My Documents\VA - Ghana Soundz v.2\11 - K. Frimpong & Vis A Vis - Aboagyewaa - K. Frimpong & Vis A Vis - Aboagyewaa.wav
Pre-gap length 0:00:02.00
Peak level 100.0 %
Track quality 100.0 %
Test CRC BBD19063
Copy CRC BBD19063
Copy OK
Track 12
Filename C:\Documents and Settings\AB\My Documents\VA - Ghana Soundz v.2\12 - The Uhuru Dance Band - Agbadza - The Uhuru Dance Band - Agbadza.wav
Pre-gap length 0:00:02.00
Peak level 91.2 %
Track quality 100.0 %
Test CRC 8C09A5FD
Copy CRC 8C09A5FD
Copy OK
Track 13
Filename C:\Documents and Settings\AB\My Documents\VA - Ghana Soundz v.2\13 - Uppers Chapter 2 - Samarin Bolga - Uppers Chapter 2 - Samarin Bolga.wav
Pre-gap length 0:00:02.00
Peak level 100.0 %
Track quality 100.0 %
Test CRC E0E38659
Copy CRC E0E38659
Copy OK
Track 14
Filename C:\Documents and Settings\AB\My Documents\VA - Ghana Soundz v.2\14 - The Apagya Show Band - Tamfo Nyi Ekyir - The Apagya Show Band - Tamfo Nyi Ekyir.wav
Pre-gap length 0:00:02.00
Peak level 100.0 %
Track quality 100.0 %
Test CRC BF9F3DBE
Copy CRC BF9F3DBE
Copy OK
No errors occured
End of status report
 
Содержание индексной карты (.CUE)
REM GENRE Funk
REM DISCID B6120B0E
REM COMMENT "ExactAudioCopy v0.95b4"
PERFORMER "Various Artists"
TITLE "Ghana Soundz v.2"
FILE "01 - Oscar Sulley & The Uhuru Dance Band - Olufeme.flac" WAVE
TRACK 01 AUDIO
TITLE "Oscar Sulley & The Uhuru Dance Band - Olufeme"
PERFORMER "Oscar Sulley & The Uhuru Dance Band - Olufeme"
INDEX 01 00:00:00
TRACK 02 AUDIO
TITLE "Joe Mensah - Africa Is Home"
PERFORMER "Joe Mensah - Africa Is Home"
INDEX 00 02:35:62
FILE "02 - Joe Mensah - Africa Is Home.flac" WAVE
INDEX 01 00:00:00
TRACK 03 AUDIO
TITLE "Ebo Taylor - Atwer Abroba"
PERFORMER "Ebo Taylor - Atwer Abroba"
INDEX 00 08:54:24
FILE "03 - Ebo Taylor - Atwer Abroba.flac" WAVE
INDEX 01 00:00:00
TRACK 04 AUDIO
TITLE "The African Brothers - Sakatumbe"
PERFORMER "The African Brothers - Sakatumbe"
INDEX 00 07:05:15
FILE "04 - The African Brothers - Sakatumbe.flac" WAVE
INDEX 01 00:00:00
TRACK 05 AUDIO
TITLE "Ebo Taylor Jnr. - Mondo Soul Funky"
PERFORMER "Ebo Taylor Jnr. - Mondo Soul Funky"
INDEX 00 06:40:50
FILE "05 - Ebo Taylor Jnr. & Wuta Wazuri - Mondo Soul Funky.flac" WAVE
INDEX 01 00:00:00
TRACK 06 AUDIO
TITLE "The Sweet Talks - Kyekye Pe Aware"
PERFORMER "The Sweet Talks - Kyekye Pe Aware"
INDEX 00 04:59:18
FILE "06 - The Sweet Talks - Kye Kye Pe Aware.flac" WAVE
INDEX 01 00:00:00
TRACK 07 AUDIO
TITLE "The Ogyatanaa Show Band - Disco Africa"
PERFORMER "The Ogyatanaa Show Band - Disco Africa"
INDEX 00 04:51:30
FILE "07 - The Ogyatanaa Show Band - Disco Africa.flac" WAVE
INDEX 01 00:00:00
TRACK 08 AUDIO
TITLE "Christy Azuma & Uppers International - Naam"
PERFORMER "Christy Azuma & Uppers International - Naam"
INDEX 00 04:13:39
FILE "08 - Christy Azuma & Uppers International - Naam.flac" WAVE
INDEX 01 00:00:00
TRACK 09 AUDIO
TITLE "Bob Pinado & His Sound Casters - Me, You, One (Means I Love You) "
PERFORMER "Bob Pinado & His Sound Casters - Me, You, One (Means I Love You) "
INDEX 00 04:33:05
FILE "09 - Bob Pinado & His Sound Casters - Me, You, One (Means I Love You).flac" WAVE
INDEX 01 00:00:00
TRACK 10 AUDIO
TITLE "Marijata - No Condition Is Permanent"
PERFORMER "Marijata - No Condition Is Permanent"
INDEX 00 03:59:06
FILE "10 - Marijata - No Condition Is Permanent.flac" WAVE
INDEX 01 00:00:00
TRACK 11 AUDIO
TITLE "K. Frimpong & Vis A Vis - Aboagyewaa"
PERFORMER "K. Frimpong & Vis A Vis - Aboagyewaa"
INDEX 00 07:02:54
FILE "11 - K. Frimpong & Vis A Vis - Aboagyewaa.flac" WAVE
INDEX 01 00:00:00
TRACK 12 AUDIO
TITLE "The Uhuru Dance Band - Agbadza"
PERFORMER "The Uhuru Dance Band - Agbadza"
INDEX 00 11:22:24
FILE "12 - The Uhuru Dance Band - Agbadza.flac" WAVE
INDEX 01 00:00:00
TRACK 13 AUDIO
TITLE "Uppers Chapter 2 - Samarin Bolga"
PERFORMER "Uppers Chapter 2 - Samarin Bolga"
INDEX 00 03:28:50
FILE "13 - Uppers Chapter 2 - Samarin Bolga.flac" WAVE
INDEX 01 00:00:00
TRACK 14 AUDIO
TITLE "The Apagya Show Band - Tamfo Nyi Ekyir"
PERFORMER "The Apagya Show Band - Tamfo Nyi Ekyir"
INDEX 00 02:50:67
FILE "14 - The Apagya Show Band - Tamfo Nyi Ekyir.flac" WAVE
INDEX 01 00:00:00
 
Об альбоме (сборнике)
Afro-music continues to inspire a whole host of musicians, producers and DJs but even now the full picture of Afro-music in the 1960s and 70s is still far from being properly represented. Ghana Soundz Volume 2 goes some way to readdressing the balance.
Following the success of Ghana Soundz Volume One, the second volume involved another a long journey to Ghana by music ethnologist and label owner Miles Cleret. This collection of unheard of and priceless gems visits the harder ground of Ghana, the pulsating centre that is afro-beat and afro-funk.
“After the recent deluge of second-rate Afro-beat compilations full of Western dance types ripping off serious musicians, Ghana Soundz Volume 2 comes up as fresh as an African daisy.”
Songlines, December 2004
03:20
293
Нет комментариев. Ваш будет первым!