Вы используете незарегистрированную версию компонента "Вкладки"!

Поиск

(FreeJazz, Avantgarde) Muhal Richard Abrams feat. Amina Claudine Myers - Duet - 1981, APE (image+.cue), lossless

(FreeJazz, Avantgarde) Muhal Richard Abrams feat. Amina Claudine Myers - Duet - 1981, APE (image+.cue), lossless
Треклист:
Muhal Richard Abrams feat. Amina Claudine Myers - Duet
Жанр: FreeJazz, Avantgarde
Год выпуска диска: 1981
Производитель диска: Black Saint (Black Saint)
Аудио кодек: APE
Тип рипа: image+.cue
Битрейт аудио: lossless
Продолжительность: 44'37
Трэклист:
1.Transparency Of Lobo Lubu (9:55)
2.Miss AMina (7:42)
3.Swang Rag Swang (4:30)
4.Down The Street From The Gene Ammons Public School (5:05)
5.Journey Home As Seen Through The Fairness Of Life (6:49)
6.Dance From The East (6:00)
7.One For Peggy (4:09)
Доп. информация:
Muhal Richard Abrams, piano & percussions
Amina Claudine Myers, piano
 
скрытый текст
Exact Audio Copy V0.99 prebeta 4 from 23. January 2008
Отчёт EAC об извлечении, выполненном 30. ноября 2008, 20:13
Muhal Richard Abrams / Duet - Feat. Amina Caludine Myers
Дисковод: Optiarc DVD RW AD-7173A Adapter: 1 ID: 0
Режим чтения : Достоверность
Использование точного потока : Да
Отключение кэша аудио : Да
Использование указателей C2 : Нет
Коррекция смещения при чтении : 48
Способность читать области Lead-in и Lead-out : Нет
Заполнение пропущенных сэмплов тишиной : Да
Удаление блоков с тишиной в начале и конце : Нет
При вычислениях CRC использовались нулевые сэмплы : Да
Интерфейс : Встроенный Win32-интерфейс для Win NT/2000
Выходной формат : Внутренние WAV-операции
Формат сэмплов : 44.100 Гц; 16 бит; стерео
TOC извлечённого CD
Трек | Старт | Длительность | Начальный сектор | Конечный сектор
---------------------------------------------------------------------
1 | 0:00.32 | 10:00.55 | 32 | 45086
2 | 10:01.12 | 7:45.45 | 45087 | 80006
3 | 17:46.57 | 4:34.00 | 80007 | 100556
4 | 22:20.57 | 5:07.73 | 100557 | 123654
5 | 27:28.55 | 6:52.47 | 123655 | 154601
6 | 34:21.27 | 6:02.38 | 154602 | 181789
7 | 40:23.65 | 4:12.00 | 181790 | 200689
Характеристики диапазона извлечения и сообщения об ошибках
Выбранный диапазон
Имя файла I:\APE\LOSSLESS\Muhal Richard Abrams - Duet - Feat. Amina Caludine Myers\Muhal Richard Abrams - Duet - Feat. Amina Caludine Myers.wav
Пиковый уровень 96.2 %
Качество диапазона 100.0 %
CRC копии 8D154E7E
Копирование... OK
Ошибок не произошло
Конец отчёта
Any questions -> support@pro-jazz.com. По всем вопросам пишите -> support@pro-jazz.com
10:20
268
Нет комментариев. Ваш будет первым!