Поиск

(Free/Experimental) [CD] Steven Delannoye/Nicola Andrioli DUO - Dining In The Dark - 2016, FLAC (tracks+.cue), lossless

(Free/Experimental) [CD] Steven Delannoye/Nicola Andrioli DUO - Dining In The Dark - 2016, FLAC (tracks+.cue), lossless
Steven Delannoye/Nicola Andrioli DUO / Dining In The Dark
Жанр: Free/Experimental
Носитель: CD
Страна-производитель диска (релиза): Belgium
Год издания: 2016
Издатель (лейбл): El Negocito Records
Номер по каталогу: eNR048
Страна исполнителя (группы): Belgium/Italy
Аудиокодек: FLAC (*.flac)
Тип рипа: tracks+.cue
Битрейт аудио: lossless
Продолжительность: 00:53:06
Источник (релизер): CD
Наличие сканов в содержимом раздачи: нет
Треклист:
1. Dining in the dark
2. Bee
3. Ducation
4. Small world
5. Sir Farlon
6. Body and Soul
 
Лог создания рипа
Drive: Slimtype DVD A DS8A5SH
XCFA 4.3.6, компрессия 5
LogExpertMode:
[Track: 1]
Ripping expert mode PASS 1/2
Ripping expert mode PASS 2/2
Control the content of the extracted files
[Track: 2]
Ripping expert mode PASS 1/2
Ripping expert mode PASS 2/2
Control the content of the extracted files
[Track: 3]
Ripping expert mode PASS 1/2
Ripping expert mode PASS 2/2
Control the content of the extracted files
[Track: 4]
Ripping expert mode PASS 1/2
Ripping expert mode PASS 2/2
Control the content of the extracted files
[Track: 5]
Ripping expert mode PASS 1/2
Ripping expert mode PASS 2/2
Control the content of the extracted files
[Track: 6]
Ripping expert mode PASS 1/2
Ripping expert mode PASS 2/2
Control the content of the extracted files
 
Содержание индексной карты (.CUE)
REM Cue file written by Xcfa
PERFORMER "Delannoye/Andrioli DUO-Dining In The Dark"
TITLE "Delannoye/Andrioli DUO-Dining In The Dark"
FILE "Delannoye/Andrioli DUO-Dining In The Dark.wav" WAVE
TRACK 01 AUDIO
PERFORMER "Delannoye/Andrioli DUO-Dining In The Dark"
TITLE "01 Dining In The Dark"
INDEX 01 00:00:00
TRACK 02 AUDIO
PERFORMER "Delannoye/Andrioli DUO-Dining In The Dark"
TITLE "02 Bee"
INDEX 00 04:38:29
INDEX 01 04:41:29
TRACK 03 AUDIO
PERFORMER "Delannoye/Andrioli DUO-Dining In The Dark"
TITLE "03 Ducation"
INDEX 00 14:01:62
INDEX 01 14:04:62
TRACK 04 AUDIO
PERFORMER "Delannoye/Andrioli DUO-Dining In The Dark"
TITLE "04 Small World"
INDEX 00 26:13:48
INDEX 01 26:16:48
TRACK 05 AUDIO
PERFORMER "Delannoye/Andrioli DUO-Dining In The Dark"
TITLE "05 Sir Farlon"
INDEX 00 37:09:37
INDEX 01 37:12:37
TRACK 06 AUDIO
PERFORMER "Delannoye/Andrioli DUO-Dining In The Dark"
TITLE "06 Body And Soul"
INDEX 00 45:22:44
INDEX 01 45:25:44
 
Лог проверки CD
Lossless Audio Checker 2.0.4 logfile from Tue, 06 Dec 2016 17:23:23 GMT
File: /run/user/1000/gvfs/cdda:host=sr0/Track 1.wav
Result: Upsampled
File: /run/user/1000/gvfs/cdda:host=sr0/Track 2.wav
Result: Upsampled
File: /run/user/1000/gvfs/cdda:host=sr0/Track 3.wav
Result: Upsampled
File: /run/user/1000/gvfs/cdda:host=sr0/Track 4.wav
Result: Upsampled
File: /run/user/1000/gvfs/cdda:host=sr0/Track 5.wav
Result: Upsampled
File: /run/user/1000/gvfs/cdda:host=sr0/Track 6.wav
Result: Upsampled
Checked: 6 | Clean: 0 | Transcoded: 0 | Upscaled: 0 | Upsampled: 6 | Error: 0
 
Скриншот спектра частот
Spek 0.8.2/ Acoustic Spectrum Analyser log
 
Об альбоме (сборнике)
Recorded: February 4, 2015 Live at the Jazz Station (Brussels) by Sébastien Van Hoey
 
Состав
Steven Delannoye - Tenor Saxophone
Nicola Andrioli - Piano
22:59
315
Нет комментариев. Ваш будет первым!