Вы используете незарегистрированную версию компонента "Вкладки"!

Поиск

(free jazz/structured improvisation/bebop) DDYGG - Live at Joan`s - 2004, FLAC (tracks+.cue) lossless

Треклист:
DDYGG / Live at Joan`s
Жанр: free jazz/structured improvisation/bebop
Страна-производитель диска: USA
Год издания диска: 2004
Издатель (лейбл): NCM East
Номер по каталогу: NCM40120
Страна: USA
Аудио кодек: FLAC (*.flac)
Тип рипа: tracks+.cue
Битрейт аудио: lossless
Продолжительность: 54:19
Источник (релизер): собственный рип
Наличие сканов в содержимом раздачи: да
Треклист:
1. Preyland
2. Rhoud things
3. The shepherd and
4. Yhe princess
5. 63 million light years is long way
6. Thanks, james
7. Dodge`s drye young glass of ginnis
8. Good guys, bad guys
 
Лог создания рипа
Exact Audio Copy V0.99 prebeta 5 from 4. May 2009
EAC extraction logfile from 1. April 2011, 17:11
DDYGG / Live at Joan's
Used drive : Optiarc DVD RW AD-7243S Adapter: 0 ID: 1
Read mode : Secure
Utilize accurate stream : Yes
Defeat audio cache : Yes
Make use of C2 pointers : No
Read offset correction : 48
Overread into Lead-In and Lead-Out : No
Fill up missing offset samples with silence : Yes
Delete leading and trailing silent blocks : No
Null samples used in CRC calculations : Yes
Used interface : Native Win32 interface for Win NT & 2000
Gap handling : Appended to previous track
Used output format : User Defined Encoder
Selected bitrate : 768 kBit/s
Quality : High
Add ID3 tag : No
Command line compressor : C:\Program Files\Exact Audio Copy\FLAC\FLAC.EXE
Additional command line options : -6 -V -T "ARTIST=%a" -T "TITLE=%t" -T "ALBUM=%g" -T "DATE=%y" -T "TRACKNUMBER=%n" -T "GENRE=%m" -T "COMMENT=%e" %s -o %d
TOC of the extracted CD
Track | Start | Length | Start sector | End sector
---------------------------------------------------------
1 | 0:00.00 | 7:27.57 | 0 | 33581
2 | 7:27.57 | 3:34.72 | 33582 | 49703
3 | 11:02.54 | 5:16.57 | 49704 | 73460
4 | 16:19.36 | 7:07.43 | 73461 | 105528
5 | 23:27.04 | 7:47.15 | 105529 | 140568
6 | 31:14.19 | 3:32.45 | 140569 | 156513
7 | 34:46.64 | 10:43.16 | 156514 | 204754
8 | 45:30.05 | 10:10.54 | 204755 | 250558
Track 1
Filename C:\Documents and Settings\S\Мои документы\Torrent раздача\01.DDYGG-Preyland.wav
Pre-gap length 0:00:02.00
Peak level 96.6 %
Track quality 100.0 %
Test CRC 21AF7458
Copy CRC 21AF7458
Track not present in AccurateRip database
Copy OK
Track 2
Filename C:\Documents and Settings\S\Мои документы\Torrent раздача\02.DDYGG-Rhound Things III.wav
Peak level 96.6 %
Track quality 100.0 %
Test CRC 544B6B53
Copy CRC 544B6B53
Track not present in AccurateRip database
Copy OK
Track 3
Filename C:\Documents and Settings\S\Мои документы\Torrent раздача\03.DDYGG-The Shepard and.wav
Pre-gap length 0:00:01.24
Peak level 96.6 %
Track quality 99.9 %
Test CRC E32736D2
Copy CRC E32736D2
Track not present in AccurateRip database
Copy OK
Track 4
Filename C:\Documents and Settings\S\Мои документы\Torrent раздача\04.DDYGG-The Princess.wav
Peak level 96.6 %
Track quality 100.0 %
Test CRC 13C60287
Copy CRC 13C60287
Track not present in AccurateRip database
Copy OK
Track 5
Filename C:\Documents and Settings\S\Мои документы\Torrent раздача\05.DDYGG-63 Million Light Years Away.wav
Peak level 96.6 %
Track quality 99.9 %
Test CRC 86E2C957
Copy CRC 86E2C957
Track not present in AccurateRip database
Copy OK
Track 6
Filename C:\Documents and Settings\S\Мои документы\Torrent раздача\06.DDYGG-Thanks, James.wav
Pre-gap length 0:00:13.34
Peak level 96.6 %
Track quality 100.0 %
Test CRC D4D54152
Copy CRC D4D54152
Track not present in AccurateRip database
Copy OK
Track 7
Filename C:\Documents and Settings\S\Мои документы\Torrent раздача\07.DDYGG-Dodge's Drye Young Glass of Ginnis.wav
Peak level 96.6 %
Track quality 99.9 %
Test CRC B438E131
Copy CRC B438E131
Track not present in AccurateRip database
Copy OK
Track 8
Filename C:\Documents and Settings\S\Мои документы\Torrent раздача\08.DDYGG-Good Guys, Bad Guys.wav
Pre-gap length 0:00:08.64
Peak level 96.6 %
Track quality 100.0 %
Test CRC 1DCC389A
Copy CRC 1DCC389A
Track not present in AccurateRip database
Copy OK
None of the tracks are present in the AccurateRip database
No errors occurred
End of status report
 
Содержание индексной карты (.CUE)
REM GENRE Avantgarde
REM DATE 2004
REM DISCID 790D0C08
REM COMMENT "ExactAudioCopy v0.99pb5"
PERFORMER "DDYGG"
TITLE "Live at Joan's"
FILE "01.DDYGG-Preyland.wav" WAVE
TRACK 01 AUDIO
TITLE "Preyland"
PERFORMER "DDYGG"
INDEX 01 00:00:00
FILE "02.DDYGG-Rhound Things III.wav" WAVE
TRACK 02 AUDIO
TITLE "Rhound Things III"
PERFORMER "DDYGG"
INDEX 01 00:00:00
TRACK 03 AUDIO
TITLE "The Shepard and"
PERFORMER "DDYGG"
INDEX 00 03:33:48
FILE "03.DDYGG-The Shepard and.wav" WAVE
INDEX 01 00:00:00
FILE "04.DDYGG-The Princess.wav" WAVE
TRACK 04 AUDIO
TITLE "The Princess"
PERFORMER "DDYGG"
INDEX 01 00:00:00
FILE "05.DDYGG-63 Million Light Years Away.wav" WAVE
TRACK 05 AUDIO
TITLE "63 Million Light Years Away"
PERFORMER "DDYGG"
INDEX 01 00:00:00
TRACK 06 AUDIO
TITLE "Thanks, James"
PERFORMER "DDYGG"
INDEX 00 07:33:56
FILE "06.DDYGG-Thanks, James.wav" WAVE
INDEX 01 00:00:00
FILE "07.DDYGG-Dodge's Drye Young Glass of Ginnis.wav" WAVE
TRACK 07 AUDIO
TITLE "Dodge's Drye Young Glass of Ginnis"
PERFORMER "DDYGG"
INDEX 01 00:00:00
TRACK 08 AUDIO
TITLE "Good Guys, Bad Guys"
PERFORMER "DDYGG"
INDEX 00 10:34:27
FILE "08.DDYGG-Good Guys, Bad Guys.wav" WAVE
INDEX 01 00:00:00
 
Состав
Knabu - guitar
Brian Drye - trombone
Mike McGinnis - clarinet, sax
Mark Dodge - drums
Matt Glassmeyer - amplified contra-alto clarinet, misc sounds
По всем вопросам пишите личное сообщение пользователю M0p94ok.
10:31
165
Нет комментариев. Ваш будет первым!