Вы используете незарегистрированную версию компонента "Вкладки"!

Поиск

(Free Jazz/Modern Jazz) Marion Brown - Back to Paris - 1990, FLAC (image+.cue), lossless

Треклист:
Marion Brown - Back to Paris
Жанр: Free Jazz/Modern Jazz
Год выпуска диска: 1990
Производитель диска: France (Harmonia Mundi)
Аудио кодек: FLAC
Тип рипа: image+.cue
Битрейт аудио: lossless
Продолжительность: 47:00
Трэклист:
01 Sunshine road
02 November cotton flower
03 La placita
04 Body and soul
05 Sweet earth flying
Marion Brown as
Hilton Ruiz p
Jack Gregg b
Freddie Waits d
Rec at Le Dreher club, Paris Feb 14, 1980
Источник: рип мой
Доп. информация: сканы есть
 
отчёт ЕАС
Exact Audio Copy V0.99 prebeta 5 from 4. May 2009
EAC extraction logfile from 2. May 2010, 12:34
Marion Brown / Back to Paris
Used drive : Optiarc DVD RW AD-5200S Adapter: 1 ID: 0
Read mode : Secure
Utilize accurate stream : Yes
Defeat audio cache : Yes
Make use of C2 pointers : No
Read offset correction : 48
Overread into Lead-In and Lead-Out : No
Fill up missing offset samples with silence : Yes
Delete leading and trailing silent blocks : No
Null samples used in CRC calculations : Yes
Used interface : Installed external ASPI interface
Used output format : User Defined Encoder
Selected bitrate : 192 kBit/s
Quality : High
Add ID3 tag : No
Command line compressor : C:\Program Files\Burrrn\flac.exe
Additional command line options : -T "DATE=%y" -T "GENRE=%m" -8 -V %s
TOC of the extracted CD
Track | Start | Length | Start sector | End sector
---------------------------------------------------------
1 | 0:00.32 | 8:02.70 | 32 | 36251
2 | 8:03.27 | 6:31.05 | 36252 | 65581
3 | 14:34.32 | 10:14.00 | 65582 | 111631
4 | 24:48.32 | 12:20.50 | 111632 | 167181
5 | 37:09.07 | 9:51.08 | 167182 | 211514
Range status and errors
Selected range
Filename F:\EAC\Новая папка\Marion Brown - Back to Paris.wav
Peak level 90.6 %
Range quality 99.9 %
Copy CRC 59B9D6A6
Copy OK
No errors occurred
AccurateRip summary
Track 1 accurately ripped (confidence 1) [415D4A82]
Track 2 accurately ripped (confidence 1) [45B790A3]
Track 3 accurately ripped (confidence 1) [77EC8C10]
Track 4 accurately ripped (confidence 1) [1C002895]
Track 5 accurately ripped (confidence 1) [454FB8D7]
All tracks accurately ripped
End of status report
Any questions -> support@pro-jazz.com. По всем вопросам пишите -> support@pro-jazz.com
22:13
157
Нет комментариев. Ваш будет первым!