Вы используете незарегистрированную версию компонента "Вкладки"!

Поиск

(Free Jazz/Improvisation) Anthony Braxton - Six Compositions (Quartet) - 1984, FLAC (tracks+.cue), lossless

(Free Jazz/Improvisation) Anthony Braxton - Six Compositions (Quartet) - 1984, FLAC (tracks+.cue), lossless
Треклист:
Anthony Braxton "Six Compositions (Quartet)"
Жанр: Free Jazz/Improvisation
Год выпуска диска: 1984
Производитель диска: USA
Аудио кодек: FLAC
Тип рипа: tracks+.cue
Битрейт аудио: lossless
Продолжительность: 35:14
Трэклист:
1. Composition No 114 (+108A)7:13
2. Composition No 110C 4:40
3. Composition No 115 6:43
4. Composition No 110A (+108B) 5:04
5. Composition No 110D 2:45
6. Composition No 116 9:47
Доп. информация:
Anthony Braxton - alto, soprano and C melody saxophones, clarinet, flute
Marilyn Crispell - piano
John Lindberg - bass
Gerry Hemingway - percussion
 
Отчёт EAC
Exact Audio Copy V0.99 prebeta 5 from 4. May 2009
Отчёт EAC об извлечении, выполненном 16. августа 2009, 19:25
Anthony Braxton / Six Compositions (Quartet) 1984
Дисковод: _NEC DVD_RW ND-4570A Adapter: 1 ID: 0
Режим чтения : Достоверность
Использование точного потока : Да
Отключение кэша аудио : Да
Использование указателей C2 : Нет
Коррекция смещения при чтении : 48
Способность читать области Lead-in и Lead-out : Нет
Заполнение пропущенных сэмплов тишиной : Да
Удаление блоков с тишиной в начале и конце : Нет
При вычислениях CRC использовались нулевые сэмплы : Да
Интерфейс : Встроенный Win32-интерфейс для Win NT/2000
Обработка зазоров : Добавлено к предыдущему треку
Выходной формат : Пользовательский кодировщик
Выбранный битрейт : 768 kBit/s
Качество : Высокий
Добавление ID3-тэга : Нет
Утилита сжатия : D:\Программы\EACCCC\Exact Audio Copy\FLAC\FLAC.EXE
Дополнительные параметры : -8 -V -T "ARTIST=%a" -T "TITLE=%t" -T "ALBUM=%g" -T "DATE=%y" -T "TRACKNUMBER=%n" -T "GENRE=%m" -T "COMMENT=EAC FLAC -8" %s
TOC извлечённого CD
Трек | Старт | Длительность | Начальный сектор | Конечный сектор
---------------------------------------------------------------------
1 | 0:00.33 | 7:13.55 | 33 | 32562
2 | 7:14.13 | 4:40.37 | 32563 | 53599
3 | 11:54.50 | 6:43.58 | 53600 | 83882
4 | 18:38.33 | 5:04.07 | 83883 | 106689
5 | 23:42.40 | 2:45.08 | 106690 | 119072
6 | 26:27.48 | 9:47.72 | 119073 | 163169
Трек 1
Имя файла D:\MP3\Anthony Braxton 1984 Six Compositions\01. Anthony Braxton - Composition No 114 (+108A).wav
Длина предзазора 0:00:02.33
Пиковый уровень 100.0 %
Качество трека 100.0 %
CRC теста 6D060C63
CRC копии 6D060C63
Копирование... OK
Трек 2
Имя файла D:\MP3\Anthony Braxton 1984 Six Compositions\02. Anthony Braxton - Composition No 110C.wav
Пиковый уровень 98.6 %
Качество трека 100.0 %
CRC теста 8AB3EE7A
CRC копии 8AB3EE7A
Копирование... OK
Трек 3
Имя файла D:\MP3\Anthony Braxton 1984 Six Compositions\03. Anthony Braxton - Composition No 115.wav
Пиковый уровень 100.0 %
Качество трека 99.9 %
CRC теста 4E74151D
CRC копии 4E74151D
Копирование... OK
Трек 4
Имя файла D:\MP3\Anthony Braxton 1984 Six Compositions\04. Anthony Braxton - Composition No 110A (+108B).wav
Пиковый уровень 100.0 %
Качество трека 100.0 %
CRC теста 90C700E1
CRC копии 90C700E1
Копирование... OK
Трек 5
Имя файла D:\MP3\Anthony Braxton 1984 Six Compositions\05. Anthony Braxton - Composition No 110D.wav
Пиковый уровень 86.5 %
Качество трека 100.0 %
CRC теста D6F68F11
CRC копии D6F68F11
Копирование... OK
Трек 6
Имя файла D:\MP3\Anthony Braxton 1984 Six Compositions\06. Anthony Braxton - Composition No 116.wav
Пиковый уровень 100.0 %
Качество трека 100.0 %
CRC теста AA5539B5
CRC копии AA5539B5
Копирование... OK
Ошибок не произошло
Конец отчёта
Any questions -> support@pro-jazz.com. По всем вопросам пишите -> support@pro-jazz.com
13:36
204
Нет комментариев. Ваш будет первым!