Поиск

(Free Jazz, World Fusion, Ethnic Jazz, Electronic) Smadj (feat. Erik Truffaz, Talvin Singh, Ibrahim Maalouf) - Selin - 2009, FLAC (tracks+.cue), lossless

(Free Jazz, World Fusion, Ethnic Jazz, Electronic) Smadj (feat. Erik Truffaz, Talvin Singh, Ibrahim Maalouf) - Selin - 2009, FLAC (tracks+.cue), lossless
Треклист:
Smadj (feat. Erik Truffaz, Talvin Singh, Ibrahim Maalouf) / Selin
Жанр: Free Jazz, World Fusion, Ethnic Jazz, Electronic
Страна-производитель диска: France
Год издания: 2009
Издатель (лейбл): MVS Records
Номер по каталогу: MVSBF09058
Страна: Tunisia / France
Аудиокодек: FLAC (*.flac)
Тип рипа: tracks+.cue
Битрейт аудио: lossless
Продолжительность: 00:51:52
Источник (релизер): вата (благодарности jeromefalcon)
Наличие сканов в содержимом раздачи: front+back+cd
Треклист:
1 Toi Et Moi 4:04
2 Sel Que J'Aime 5:33
3 Geriye 5:19
4 Passionnée 5:15
5 Selen 4:17
6 Je T'Apprendrai L'Amour 3:22
7 Anarouz 4:16
8 Üc Gün 4:29
9 Tendre 5:21
10 Fougueuse (Live) 9:44
 
Лог создания рипа
Exact Audio Copy V1.0 beta 3 from 29. August 2011
EAC extraction logfile from 27. March 2012, 22:09
Smadj / Selin
Used drive : PIONEER DVD-RW DVR-212D Adapter: 4 ID: 0
Read mode : Secure
Utilize accurate stream : Yes
Defeat audio cache : Yes
Make use of C2 pointers : No
Read offset correction : 48
Overread into Lead-In and Lead-Out : No
Fill up missing offset samples with silence : Yes
Delete leading and trailing silent blocks : No
Null samples used in CRC calculations : Yes
Used interface : Native Win32 interface for Win NT & 2000
Gap handling : Appended to previous track
Used output format : User Defined Encoder
Selected bitrate : 128 kBit/s
Quality : High
Add ID3 tag : Yes
Command line compressor : C:\Applications\Exact Audio Copy\Flac\flac.exe
Additional command line options : -8 -V -T "ARTIST=%artist%" -T "TITLE=%title%" -T "ALBUM=%albumtitle%" -T "DATE=%year%" -T "TRACKNUMBER=%tracknr%" -T "GENRE=%genre%" -T "PERFORMER=%albuminterpret%" -T "COMPOSER=%composer%" %haslyrics%--tag-from-file=LYRICS="%lyricsfile%"%haslyrics% -T "ALBUMARTIST=%albumartist%" -T "DISCNUMBER=%cdnumber%" -T "TOTALDISCS=%totalcds%" -T "TOTALTRACKS=%numtracks%" -T "COMMENT=%comment%" %source% -o %dest%
TOC of the extracted CD
Track | Start | Length | Start sector | End sector
---------------------------------------------------------
1 | 0:00.00 | 4:03.06 | 0 | 18230
2 | 4:03.06 | 5:34.74 | 18231 | 43354
3 | 9:38.05 | 5:20.39 | 43355 | 67393
4 | 14:58.44 | 5:14.71 | 67394 | 91014
5 | 20:13.40 | 4:19.22 | 91015 | 110461
6 | 24:32.62 | 3:22.42 | 110462 | 125653
7 | 27:55.29 | 4:16.20 | 125654 | 144873
8 | 32:11.49 | 4:30.17 | 144874 | 165140
9 | 36:41.66 | 5:23.41 | 165141 | 189406
10 | 42:05.32 | 9:46.38 | 189407 | 233394
Track 1
Filename C:\rips\batch17\smadj\01 - Toi Et Moi.wav
Pre-gap length 0:00:02.00
Peak level 100.0 %
Extraction speed 4.3 X
Track quality 100.0 %
Test CRC 1930A807
Copy CRC 1930A807
Accurately ripped (confidence 3) [8C0792EB] (AR v2)
Copy OK
Track 2
Filename C:\rips\batch17\smadj\02 - Sel Que J'Aime.wav
Peak level 100.0 %
Extraction speed 4.6 X
Track quality 99.9 %
Test CRC F55D11B0
Copy CRC F55D11B0
Accurately ripped (confidence 3) [5C678297] (AR v2)
Copy OK
Track 3
Filename C:\rips\batch17\smadj\03 - Geriye.wav
Peak level 100.0 %
Extraction speed 5.6 X
Track quality 100.0 %
Test CRC 9A27A148
Copy CRC 9A27A148
Accurately ripped (confidence 3) [EDA68987] (AR v2)
Copy OK
Track 4
Filename C:\rips\batch17\smadj\04 - Passionnée.wav
Peak level 100.0 %
Extraction speed 6.0 X
Track quality 100.0 %
Test CRC F526AE81
Copy CRC F526AE81
Accurately ripped (confidence 3) [82111511] (AR v2)
Copy OK
Track 5
Filename C:\rips\batch17\smadj\05 - Selen.wav
Peak level 100.0 %
Extraction speed 5.6 X
Track quality 99.9 %
Test CRC 1E3A8373
Copy CRC 1E3A8373
Accurately ripped (confidence 3) [F4BC5D62] (AR v2)
Copy OK
Track 6
Filename C:\rips\batch17\smadj\06 - Je T'Apprendrai L'Amour.wav
Peak level 100.0 %
Extraction speed 6.3 X
Track quality 100.0 %
Test CRC B99E3108
Copy CRC B99E3108
Accurately ripped (confidence 3) [82A82476] (AR v2)
Copy OK
Track 7
Filename C:\rips\batch17\smadj\07 - Anarouz.wav
Peak level 100.0 %
Extraction speed 5.9 X
Track quality 99.9 %
Test CRC 3F698847
Copy CRC 3F698847
Accurately ripped (confidence 3) [6B0A63A1] (AR v2)
Copy OK
Track 8
Filename C:\rips\batch17\smadj\08 - Üc Gün.wav
Peak level 100.0 %
Extraction speed 6.3 X
Track quality 99.9 %
Test CRC 89033E58
Copy CRC 89033E58
Accurately ripped (confidence 3) [D8214675] (AR v2)
Copy OK
Track 9
Filename C:\rips\batch17\smadj\09 - Tendre.wav
Peak level 100.0 %
Extraction speed 7.6 X
Track quality 100.0 %
Test CRC 11298586
Copy CRC 11298586
Accurately ripped (confidence 3) [09DA8608] (AR v2)
Copy OK
Track 10
Filename C:\rips\batch17\smadj\10 - Fougueuse (Live).wav
Peak level 100.0 %
Extraction speed 8.4 X
Track quality 100.0 %
Test CRC FAEC6C8E
Copy CRC FAEC6C8E
Accurately ripped (confidence 3) [FA8DC70F] (AR v2)
Copy OK
All tracks accurately ripped
No errors occurred
End of status report
---- CUETools DB Plugin V2.1.3
[CTDB TOCID: dYRPa4GYo8sQ8DRGnEvb11JCpYg-] disk not present in database, Submit result: dYRPa4GYo8sQ8DRGnEvb11JCpYg- has been uploaded
==== Log checksum 27CEA985FB6B2495C15BEAC6B8383FADEBCADBC45FD8E9BD5DBD9FA7FE092CF1 ====
 
Содержание индексной карты (.CUE)
REM DATE 2009
REM DISCID 780C270A
REM COMMENT "ExactAudioCopy v1.0b3"
PERFORMER "Smadj"
TITLE "Selin"
FILE "01 - Toi Et Moi.wav" WAVE
TRACK 01 AUDIO
TITLE "Toi Et Moi"
PERFORMER "Smadj"
INDEX 01 00:00:00
FILE "02 - Sel Que J'Aime.wav" WAVE
TRACK 02 AUDIO
TITLE "Sel Que J'Aime"
PERFORMER "Smadj"
INDEX 01 00:00:00
FILE "03 - Geriye.wav" WAVE
TRACK 03 AUDIO
TITLE "Geriye"
PERFORMER "Smadj"
INDEX 01 00:00:00
FILE "04 - Passionnйe.wav" WAVE
TRACK 04 AUDIO
TITLE "Passionnйe"
PERFORMER "Smadj"
INDEX 01 00:00:00
FILE "05 - Selen.wav" WAVE
TRACK 05 AUDIO
TITLE "Selen"
PERFORMER "Smadj"
INDEX 01 00:00:00
FILE "06 - Je T'Apprendrai L'Amour.wav" WAVE
TRACK 06 AUDIO
TITLE "Je T'Apprendrai L'Amour"
PERFORMER "Smadj"
INDEX 01 00:00:00
FILE "07 - Anarouz.wav" WAVE
TRACK 07 AUDIO
TITLE "Anarouz"
PERFORMER "Smadj"
INDEX 01 00:00:00
FILE "08 - Ьc Gьn.wav" WAVE
TRACK 08 AUDIO
TITLE "Ьc Gьn"
PERFORMER "Smadj"
INDEX 01 00:00:00
FILE "09 - Tendre.wav" WAVE
TRACK 09 AUDIO
TITLE "Tendre"
PERFORMER "Smadj"
INDEX 01 00:00:00
FILE "10 - Fougueuse (Live).wav" WAVE
TRACK 10 AUDIO
TITLE "Fougueuse (Live)"
PERFORMER "Smadj"
INDEX 01 00:00:00
 
Об исполнителе
Entering a jazz school at age 15 due to his intense interest in the guitar, Smadjs musical development came to be characterized by transforming traditional jazz styles into eclectic sounds.
This interest in the mechanics of making music led Smadj to pursue a degree in sound engineering, which led to a fruitful career as a recording & sound engineer for famous classical and folk musicians.
Releasing his first album in 1994, it wasnt until 2000 that Smadj became recognized on an international scale for his signature blending of acoustic and electronic sounds on Equilibriste, which would ascend on the European World Music Charts to the number 4 position.
In 2002, Smadj joined fellow ud magician, French musician Mehdi Haddab, for a special project that would transport the oud to the 21st century in DuOuD.
Supporting their triumph of an album with a 2 year world tour, the album also received 2nd place in the Best Album category at the prestigious BBC World Music Awards.
In 2003, Smadj joined master percussionist Burhan Öçal for the Kırklareli İl Sınırı and in 2005 he stepped behind the scenes to serve as artistic director for Burhan Öçals New Dream.
He recorded his last album S.O.S released in december in turkey with 2 turkish virtuosos Savas Zurnaci and Orhan Osman.
 
Состав
Oud [Electric & Acoustic], Programmed By, Guitar [Fretless & Electric], Vocal – Smadj
Tabla – Talvin Singh
Trumpet – Erik Truffaz
Trumpet – Ibrahim Maalouf (10)
Vocals – Minino Garay, Onor Bumbum, Berin Koç
Baglama – Cem Yildiz
Cello – Timur Ataseuer
Piano, Arranged By [Strings] – Rüstem Mahmutov
Violin – Ismet Oleyay, Kadir Oleyay, Sendur Gürelel
Violin [Solo] – Adnan Karaduman
Жан-Пьер Смаджа (более известный как Smadj) – французский музыкант родом из Туниса. Он является мастером игры на уде (арабской лютне) и, вместе с тем, заядлым электронщиком. Будучи дипломированным звукорежиссером, Смадж очень бережно и чутко относится к процессу звукозаписи. Его визитной карточкой стало смешение акустических и электронных звуков вкупе с завораживающим сочетанием арабских, североафриканских, индийских и других ориентальных мелодий.
11:30
605
Нет комментариев. Ваш будет первым!