Вы используете незарегистрированную версию компонента "Вкладки"!

Поиск

(Free Jazz) William Parker / In Order To Survive - The Peach Orchard (2cd) - 1998, FLAC (tracks+.cue), lossless

Треклист:
William Parker / In Order To Survive - The Peach Orchard
Жанр: Free Jazz
Год выпуска диска: 1998
Производитель диска: AUM Fidelity (AUM010/11)
Источник: вот.сиди (balth67)
Аудио кодек: FLAC
Тип рипа: tracks+.cue
Битрейт аудио: lossless
Продолжительность: 2:16:32
Трэклист:
I
1. Thot 14.12
2. Moholo 18.51
3. Three Clay Pots 15.24
4. The Peach Orchard 20.45
II
5. Posium Pendasem #3 11.36
6. Leaf Dance 25.28
7. Theme From Pelikan 17.10
8. In Order To Survive 12.24
Recorded by Alen Hadzi Stefanov
1, 4: Context / NYC on March 20, 1998
2, 3, 8: Knitting Factory / NYC on July 2, 1997
6, 7: Alterknit / NYC on February 7, 1997
5: Context / NYC on March 21, 1998
William Parker: bass
Cooper-Moore: piano
Rob Brown: alto sax
Susie Ibarra: drums
Assif Tsahar: bass clarinet (5)
 
Отчёт EAC
 
I
EAC extraction logfile from 19. May 2008, 9:52 for CD
William Parker's In Order To Survive / The Peach Orchard (Disc 1)
Used drive : SONY DVD-ROM DDU1615 Adapter: 0 ID: 0
Read mode : Secure with NO C2, accurate stream, disable cache
Read offset correction : 6
Overread into Lead-In and Lead-Out : No
Used output format : C:\Program Files\FLAC\flac.exe (User Defined Encoder)
128 kBit/s
Additional command line options : -V -8 -T "artist=%a" -T "title=%t" -T "album=%g" -T "date=%y" -T "tracknumber=%n" -T "genre=%m" %s
Other options :
Fill up missing offset samples with silence : Yes
Delete leading and trailing silent blocks : No
Installed external ASPI interface
Track 1
Filename D:\DOWNLOADS\__UPLOADS\William Parker's In Order To Survive - The Peach Orchard (Disc 1) (1998) [FLAC]\01 - Thot.wav
Pre-gap length 0:00:02.00
Peak level 100.0 %
Track quality 100.0 %
Test CRC C80FD782
Copy CRC C80FD782
Copy OK
Track 2
Filename D:\DOWNLOADS\__UPLOADS\William Parker's In Order To Survive - The Peach Orchard (Disc 1) (1998) [FLAC]\02 - Moholo.wav
Pre-gap length 0:00:03.00
Peak level 100.0 %
Track quality 100.0 %
Test CRC 6609822E
Copy CRC 6609822E
Copy OK
Track 3
Filename D:\DOWNLOADS\__UPLOADS\William Parker's In Order To Survive - The Peach Orchard (Disc 1) (1998) [FLAC]\03 - Three Clay Pots.wav
Pre-gap length 0:00:03.41
Peak level 100.0 %
Track quality 100.0 %
Test CRC A015894D
Copy CRC A015894D
Copy OK
Track 4
Filename D:\DOWNLOADS\__UPLOADS\William Parker's In Order To Survive - The Peach Orchard (Disc 1) (1998) [FLAC]\04 - The Peach Orchard.wav
Pre-gap length 0:00:03.00
Peak level 100.0 %
Track quality 99.8 %
Test CRC 69F0FF51
Copy CRC 69F0FF51
Copy OK
No errors occured
End of status report
 
II
EAC extraction logfile from 19. May 2008, 12:44 for CD
William Parker - In Order To Survive / The Peach Orchard (Disc 2)
Used drive : SONY DVD-ROM DDU1615 Adapter: 0 ID: 0
Read mode : Secure with NO C2, accurate stream, disable cache
Read offset correction : 6
Overread into Lead-In and Lead-Out : No
Used output format : C:\Program Files\FLAC\flac.exe (User Defined Encoder)
128 kBit/s
Additional command line options : -V -8 -T "artist=%a" -T "title=%t" -T "album=%g" -T "date=%y" -T "tracknumber=%n" -T "genre=%m" %s
Other options :
Fill up missing offset samples with silence : Yes
Delete leading and trailing silent blocks : No
Installed external ASPI interface
Track 1
Filename D:\DOWNLOADS\__UPLOADS\William Parker - In Order To Survive - The Peach Orchard (Disc 2) () [FLAC]\01 - Posium Pendasem #3.wav
Pre-gap length 0:00:02.00
Peak level 100.0 %
Track quality 100.0 %
Test CRC 2A0D1C04
Copy CRC 2A0D1C04
Copy OK
Track 2
Filename D:\DOWNLOADS\__UPLOADS\William Parker - In Order To Survive - The Peach Orchard (Disc 2) () [FLAC]\02 - Leaf Dance.wav
Pre-gap length 0:00:01.00
Peak level 100.0 %
Track quality 100.0 %
Test CRC 1731FB52
Copy CRC 1731FB52
Copy OK
Track 3
Filename D:\DOWNLOADS\__UPLOADS\William Parker - In Order To Survive - The Peach Orchard (Disc 2) () [FLAC]\03 - Theme From Pelikan.wav
Peak level 100.0 %
Track quality 99.9 %
Test CRC 6C9E56B1
Copy CRC 6C9E56B1
Copy OK
Track 4
Filename D:\DOWNLOADS\__UPLOADS\William Parker - In Order To Survive - The Peach Orchard (Disc 2) () [FLAC]\04 - In Order To Survive.wav
Pre-gap length 0:00:03.00
Peak level 79.4 %
Track quality 99.8 %
Test CRC 8E3C1452
Copy CRC 8E3C1452
Copy OK
No errors occured
End of status report
 
cue
 
I
REM DATE 1998
REM DISCID 3D104104
REM COMMENT "ExactAudioCopy v0.95b3"
PERFORMER "William Parker's In Order To Survive"
TITLE "The Peach Orchard (Disc 1)"
FILE "William Parker's In Order To Survive - The Peach Orchard (Disc 1) (1998) [FLAC]\01 - Thot.wav" WAVE
TRACK 01 AUDIO
TITLE "Thot"
PERFORMER "William Parker's In Order To Survive"
INDEX 01 00:00:00
TRACK 02 AUDIO
TITLE "Moholo"
PERFORMER "William Parker's In Order To Survive"
INDEX 00 14:12:11
FILE "William Parker's In Order To Survive - The Peach Orchard (Disc 1) (1998) [FLAC]\02 - Moholo.wav" WAVE
INDEX 01 00:00:00
TRACK 03 AUDIO
TITLE "Three Clay Pots"
PERFORMER "William Parker's In Order To Survive"
INDEX 00 18:50:49
FILE "William Parker's In Order To Survive - The Peach Orchard (Disc 1) (1998) [FLAC]\03 - Three Clay Pots.wav" WAVE
INDEX 01 00:00:00
TRACK 04 AUDIO
TITLE "The Peach Orchard"
PERFORMER "William Parker's In Order To Survive"
INDEX 00 15:23:54
FILE "William Parker's In Order To Survive - The Peach Orchard (Disc 1) (1998) [FLAC]\04 - The Peach Orchard.wav" WAVE
INDEX 01 00:00:00
 
II
REM DISCID 3A0FBF04
REM COMMENT "ExactAudioCopy v0.95b3"
PERFORMER "William Parker - In Order To Survive"
TITLE "The Peach Orchard (Disc 2)"
FILE "William Parker - In Order To Survive - The Peach Orchard (Disc 2) () [FLAC]\01 - Posium Pendasem #3.wav" WAVE
TRACK 01 AUDIO
TITLE "Posium Pendasem #3"
PERFORMER "William Parker - In Order To Survive"
INDEX 01 00:00:00
TRACK 02 AUDIO
TITLE "Leaf Dance"
PERFORMER "William Parker - In Order To Survive"
INDEX 00 11:36:06
FILE "William Parker - In Order To Survive - The Peach Orchard (Disc 2) () [FLAC]\02 - Leaf Dance.wav" WAVE
INDEX 01 00:00:00
FILE "William Parker - In Order To Survive - The Peach Orchard (Disc 2) () [FLAC]\03 - Theme From Pelikan.wav" WAVE
TRACK 03 AUDIO
TITLE "Theme From Pelikan"
PERFORMER "William Parker - In Order To Survive"
INDEX 01 00:00:00
TRACK 04 AUDIO
TITLE "In Order To Survive"
PERFORMER "William Parker - In Order To Survive"
INDEX 00 17:09:48
FILE "William Parker - In Order To Survive - The Peach Orchard (Disc 2) () [FLAC]\04 - In Order To Survive.wav" WAVE
INDEX 01 00:00:00
 
Отчёт Audiocheckera
AUDIOCHECKER v1.2 - by Dester - opdester@freemail.hu
~~~~~~~~~~~~~~~~~
1 -===- H:\Песеньки\lossless\william parker\william parker in order to survive\the peach orchard 1998\Disc 1\01 - Thot.flac
Extracted successfully
Conclusion: This track looks like CDDA with probability 100%
2 -===- H:\Песеньки\lossless\william parker\william parker in order to survive\the peach orchard 1998\Disc 1\02 - Moholo.flac
Extracted successfully
Conclusion: This track looks like CDDA with probability 99%
3 -===- H:\Песеньки\lossless\william parker\william parker in order to survive\the peach orchard 1998\Disc 1\03 - Three Clay Pots.flac
Extracted successfully
Conclusion: This track looks like CDDA with probability 99%
4 -===- H:\Песеньки\lossless\william parker\william parker in order to survive\the peach orchard 1998\Disc 1\04 - The Peach Orchard.flac
Extracted successfully
Conclusion: This track looks like CDDA with probability 100%
5 -===- H:\Песеньки\lossless\william parker\william parker in order to survive\the peach orchard 1998\Disc 2\01 - Posium Pendasem #3.flac
Extracted successfully
Conclusion: This track looks like CDDA with probability 100%
6 -===- H:\Песеньки\lossless\william parker\william parker in order to survive\the peach orchard 1998\Disc 2\02 - Leaf Dance.flac
Extracted successfully
Conclusion: This track looks like CDDA with probability 100%
7 -===- H:\Песеньки\lossless\william parker\william parker in order to survive\the peach orchard 1998\Disc 2\03 - Theme From Pelikan.flac
Extracted successfully
Conclusion: This track looks like CDDA with probability 100%
8 -===- H:\Песеньки\lossless\william parker\william parker in order to survive\the peach orchard 1998\Disc 2\04 - In Order To Survive.flac
Extracted successfully
Conclusion: This track looks like CDDA with probability 100%
По всем вопросам пишите личное сообщение пользователю M0p94ok.
19:53
171
Нет комментариев. Ваш будет первым!