Вы используете незарегистрированную версию компонента "Вкладки"!

Поиск

(Free Jazz) William Parker & Little Huey Creative Music Orchestra - Mass for the Healing of the World - 2003, FLAC (tracks+.cue), lossless

(Free Jazz) William Parker & Little Huey Creative Music Orchestra - Mass for the Healing of the World - 2003, FLAC (tracks+.cue), lossless
Треклист:
William Parker & Little Huey Creative Music Orchestra / Mass for the Healing of the World
Жанр: Free Jazz
Страна-производитель диска: Italy
Год издания диска: 2003
Издатель (лейбл): Black Saint
Номер по каталогу: 120 179-2
Аудиокодек: FLAC (*.flac)
Тип рипа: tracks+.cue
Битрейт аудио: lossless
Продолжительность: 70:53
Источник (релизер): what.cd (balth67)
Наличие сканов в содержимом раздачи: да
Треклист:
1 Invocation (0:30)
Voice [Reading] - Alex Lodico
2 First Reading (Dawn Song) (13:22)
Timpani - Susie Ibarra
3 Hallelujah (8:46)
4 Mysticism (5:44)
5 Response [Muezzin's Call] (13:00)
6 Second Reading (Cathedral In The Mountains) (6:55)
7 Willows (Can You Give Me Back My Life) (8:36)
8 Cantos (Love God) (13:55)
 
Лог создания рипа
EAC extraction logfile from 18. June 2008, 9:59 for CD
William Parker and the Little Huey Creative Music Orchestra / Mass for the Healing of the World
Used drive : SONY DVD-ROM DDU1615 Adapter: 0 ID: 0
Read mode : Secure with NO C2, accurate stream, disable cache
Read offset correction : 6
Overread into Lead-In and Lead-Out : No
Used output format : C:\Program Files\FLAC\flac.exe (User Defined Encoder)
128 kBit/s
Additional command line options : -V -8 -T "artist=%a" -T "title=%t" -T "album=%g" -T "date=%y" -T "tracknumber=%n" -T "genre=%m" %s
Other options :
Fill up missing offset samples with silence : Yes
Delete leading and trailing silent blocks : No
Installed external ASPI interface
Track 1
Filename D:\DOWNLOADS\__UPLOADS\William Parker and the Little Huey Creative Music Orchestra - Mass for the Healing of the World (2003) [FLAC]\01 - Invocation.wav
Pre-gap length 0:00:02.00
Peak level 17.4 %
Track quality 100.0 %
Test CRC F530FC0F
Copy CRC F530FC0F
Copy OK
Track 2
Filename D:\DOWNLOADS\__UPLOADS\William Parker and the Little Huey Creative Music Orchestra - Mass for the Healing of the World (2003) [FLAC]\02 - First Reading (Dawn Song).wav
Peak level 81.8 %
Track quality 100.0 %
Test CRC 0D8B2D1B
Copy CRC 0D8B2D1B
Copy OK
Track 3
Filename D:\DOWNLOADS\__UPLOADS\William Parker and the Little Huey Creative Music Orchestra - Mass for the Healing of the World (2003) [FLAC]\03 - Hallelujah.wav
Peak level 99.0 %
Track quality 100.0 %
Test CRC F6884DA9
Copy CRC F6884DA9
Copy OK
Track 4
Filename D:\DOWNLOADS\__UPLOADS\William Parker and the Little Huey Creative Music Orchestra - Mass for the Healing of the World (2003) [FLAC]\04 - Mysticism.wav
Peak level 99.0 %
Track quality 100.0 %
Test CRC 74869E07
Copy CRC 74869E07
Copy OK
Track 5
Filename D:\DOWNLOADS\__UPLOADS\William Parker and the Little Huey Creative Music Orchestra - Mass for the Healing of the World (2003) [FLAC]\05 - Response (Muezzin's Call).wav
Peak level 99.0 %
Track quality 100.0 %
Test CRC B44D8A53
Copy CRC B44D8A53
Copy OK
Track 6
Filename D:\DOWNLOADS\__UPLOADS\William Parker and the Little Huey Creative Music Orchestra - Mass for the Healing of the World (2003) [FLAC]\06 - Second Reading (Cathedral in the Mountains).wav
Peak level 89.9 %
Track quality 100.0 %
Test CRC 0204FB56
Copy CRC 0204FB56
Copy OK
Track 7
Filename D:\DOWNLOADS\__UPLOADS\William Parker and the Little Huey Creative Music Orchestra - Mass for the Healing of the World (2003) [FLAC]\07 - Willows (Can You Give Me Back My Life).wav
Peak level 79.3 %
Track quality 100.0 %
Test CRC 5ABBA8A1
Copy CRC 5ABBA8A1
Copy OK
Track 8
Filename D:\DOWNLOADS\__UPLOADS\William Parker and the Little Huey Creative Music Orchestra - Mass for the Healing of the World (2003) [FLAC]\08 - Cantos (Love God).wav
Peak level 99.0 %
Track quality 100.0 %
Test CRC C9F92952
Copy CRC C9F92952
Copy OK
No errors occured
End of status report
 
Содержание индексной карты (.CUE)
REM GENRE "Free/Avant Jazz"
REM DATE 2003
REM DISCID 66109D08
REM COMMENT "ExactAudioCopy v0.95b3"
PERFORMER "William Parker and the Little Huey Creative Music Orchestra"
TITLE "Mass for the Healing of the World"
FILE "01 - Invocation.wav" WAVE
TRACK 01 AUDIO
TITLE "Invocation"
PERFORMER "William Parker and the Little Huey Creative Music Orchestra"
INDEX 01 00:00:00
FILE "02 - First Reading (Dawn Song).wav" WAVE
TRACK 02 AUDIO
TITLE "First Reading (Dawn Song)"
PERFORMER "William Parker and the Little Huey Creative Music Orchestra"
INDEX 01 00:00:00
FILE "03 - Hallelujah.wav" WAVE
TRACK 03 AUDIO
TITLE "Hallelujah"
PERFORMER "William Parker and the Little Huey Creative Music Orchestra"
INDEX 01 00:00:00
FILE "04 - Mysticism.wav" WAVE
TRACK 04 AUDIO
TITLE "Mysticism"
PERFORMER "William Parker and the Little Huey Creative Music Orchestra"
INDEX 01 00:00:00
FILE "05 - Response (Muezzin's Call).wav" WAVE
TRACK 05 AUDIO
TITLE "Response (Muezzin's Call)"
PERFORMER "William Parker and the Little Huey Creative Music Orchestra"
INDEX 01 00:00:00
FILE "06 - Second Reading (Cathedral in the Mountains).wav" WAVE
TRACK 06 AUDIO
TITLE "Second Reading (Cathedral in the Mountains)"
PERFORMER "William Parker and the Little Huey Creative Music Orchestra"
INDEX 01 00:00:00
FILE "07 - Willows (Can You Give Me Back My Life).wav" WAVE
TRACK 07 AUDIO
TITLE "Willows (Can You Give Me Back My Life)"
PERFORMER "William Parker and the Little Huey Creative Music Orchestra"
INDEX 01 00:00:00
FILE "08 - Cantos (Love God).wav" WAVE
TRACK 08 AUDIO
TITLE "Cantos (Love God)"
PERFORMER "William Parker and the Little Huey Creative Music Orchestra"
INDEX 01 00:00:00
 
Лог проверки качества
AUDIOCHECKER v2.0 beta (build 457) - by Dester - opdester@freemail.hu
~~~~~~~~~~~~~~~~~~~~~~~~~~~~~~~~~~
-=== НЕ РЕДАКТИРУЙТЕ ЭТОТ ФАЙЛ! ===-
Путь: ...\1998-Mass for the Healing of the World [2003, Black Saint 120 179-2]
1 -=- 01 - Invocation.flac -=- CDDA (100%)
2 -=- 02 - First Reading (Dawn Song).flac -=- CDDA (100%)
3 -=- 03 - Hallelujah.flac -=- CDDA (99%)
4 -=- 04 - Mysticism.flac -=- MPEG (95%)
5 -=- 05 - Response (Muezzin's Call).flac -=- MPEG (95%)
6 -=- 06 - Second Reading (Cathedral in the Mountains).flac -=- MPEG (95%)
7 -=- 07 - Willows (Can You Give Me Back My Life).flac -=- MPEG (95%)
8 -=- 08 - Cantos (Love God).flac -=- MPEG (95%)
Сводка 40,50% CDDA
57882196
 
Скриншот спектра частот
Доп. информация: Recorded Live on 31 May 1998 at Teatro Nuovo in Verona, Italy
 
Об альбоме (сборнике)
By Rex Butters
Recorded live in Verona, Italy in 1998, Mass for the Healing of the World provides instant nostalgia in the quick change world of modern jazz. Built around William Parker's luminous and now defunct In Order To Survive band, the disc delivers an encore taste of Cooper-Moore's big handed piano stylings and Susie Ibarra's pandemic percussion with Parker's subharmonic depth charges. Old friends Rob Brown and Roy Campbell, Jr. join tenor titan Assif Tshar and others to create this lively version of the Little Huey Creative Music Orchestra.
The Mass begins with an Invocation read by Alex Lodico in Italian. Portentously unfolding with Dave Hofstra's tuba and Ibarra's tympani, "First Reading (Dawn Song)" sets the tone invoking awe of the sacred. Cooper-Moore's broken glass fills keep the rapture grounded. The orchestra's tone colors recall serial Stravinsky as it heats up and stretches. Suddenly, Cooper-Moore uses low stately chords to set up Aleta Hayes' singing of Parker's inspirational lyric.
He slips his accompanist's leash to tear into the opening of "Hallelujah." Dave Sewelson's mild baritone sax blows overwhelmed by a piano blizzard. As the rhythm section threatens to fly off the stage, it parts to reveal Parker, the driving heat at the core, firing on all pistons. A spacious opening of tiered fanfares prepares "Mysticism," then a heavy lockstep rhythm provides foundation for Chris Jonas' soaring, roiling soprano, Cooper-Moore breaking stride with shattering chord shards.
Altered soprano and processed trombone get "Response (Muezzin's Call)" going, then space is replaced by swing as the rhythm section plays it fairly straight. Tshar blows some torrid tenor and soon enough Brown scorches the stage. Little Huey rolls and blares as Moore/Parker/Ibarra/Brown burn into the Italian night. Lewis Barnes' trumpet dances wildly with the ecstatic crew. "Second Reading (Cathedral in the Mountains)" sets a down blue groove in motion for Campbell to decorate. When Lodico returns with trombone, Campbell peels off sheets of brass a la Don Cherry.
An emotional ballad, "Willows (Can you Give Me Back My Life)" has Darryl Foster's thoughtful soprano navigating the minors. Richard Rodriguez soulfully sweeps through on trumpet. "Cantos (Love God)" sounds like an outtake from the Peach Orchard, with its determined stride. Brown and Campbell restlessly wrestle through the rigid structure with unstoppable power.
One wonders how many recorded Little Huey performances languish in the can. This one documents a night six years ago that is both timeless and a time capsule. Like all Little Huey projects, all manner of musics emanate from the assembled musicians, all the musics tinted blue.
 
Состав
Drums - Susie Ibarra
Piano - Cooper Moore
Saxophone [Alto] - Marco Eneidi , Rob Brown (4)
Saxophone [Baritone] - Dave Sewelson
Saxophone [Soprano] - Chris Jonas
Saxophone [Tenor, Soprano] - Darryl Foster
Saxophone [Tenor], Clarinet [Bass] - Assif Tsahar
Trombone - Alex Lodico , Masahiko Kono
Trumpet - Lewis Barnes , Richard Rodriguez , Roy Campbell
Tuba - Dave Hofstra*
Voice - Aleta Heyes*
Any questions -> support@pro-jazz.com. По всем вопросам пишите -> support@pro-jazz.com
19:34
164
Нет комментариев. Ваш будет первым!