Вы используете незарегистрированную версию компонента "Вкладки"!

Поиск

(free jazz) Wadada Leo Smith and Ed Blackwell - The Blue Mountain's Sun Drummer 1986 FLAC (tracks+.cue), lossless

(free jazz) Wadada Leo Smith and Ed Blackwell - The Blue Mountain's Sun Drummer 1986 FLAC (tracks+.cue), lossless
Треклист:


Wadada Leo Smith and Ed Blackwell
The Blue Mountain's Sun Drummer 1986
Жанр: free jazz
Год выпуска: 2010
Издатель (лейбл):Kabell
Формат: FLAC (tracks+.cue)
Битрейт аудио: lossless
Продолжительность 51`42
Источник: what.cd

tracks

[1] Uprising
[2] Love
[3] Seeds of a Forgotten Flower
[4] The Blue Mountain's Sun Drummer
[5] Mto: The Celestial River
[6] Don't You Remember
[7] Sellassie-I
[8] Seven Arrows in the Garden of Light
[9] Buffalo People: A Blues Ritual Dance
[10] Albert Ayler in a Spiritual Light


 
.log
X Lossless Decoder version 20120609 (141.0)
XLD extraction logfile from 2012-09-05 20:06:22 -0400
Wadada Leo Smith and Ed Blackwell / The Blue Mountain's Sun Drummer
Used drive : MATSHITA DVD-R UJ-8A8 (revision HB14)
Ripper mode : XLD Secure Ripper
Disable audio cache : OK for the drive with a cache less than 1375KiB
Make use of C2 pointers : NO
Read offset correction : 102
Max retry count : 20
Gap status : Analyzed, Appended
TOC of the extracted CD
Track | Start | Length | Start sector | End sector
---------------------------------------------------------
1 | 00:00:00 | 04:41:51 | 0 | 21125
2 | 04:41:51 | 05:11:27 | 21126 | 44477
3 | 09:53:03 | 02:22:70 | 44478 | 55197
4 | 12:15:73 | 06:37:07 | 55198 | 84979
5 | 18:53:05 | 06:46:38 | 84980 | 115467
6 | 25:39:43 | 05:54:31 | 115468 | 142048
7 | 31:33:74 | 03:42:24 | 142049 | 158722
8 | 35:16:23 | 03:57:34 | 158723 | 176531
9 | 39:13:57 | 08:49:10 | 176532 | 216216
10 | 48:02:67 | 03:38:57 | 216217 | 232623
List of alternate offset correction values
# | Absolute | Relative | Confidence
------------------------------------------
1 | 108 | 6 | 1
AccurateRip Summary (DiscID: 001308a3-0099eec8-900c1d0a)
Track 01 : OK (v2, confidence 1/1, with different offset)
Track 02 : OK (v2, confidence 1/1, with different offset)
Track 03 : OK (v2, confidence 1/1, with different offset)
Track 04 : OK (v2, confidence 1/1, with different offset)
Track 05 : OK (v2, confidence 1/1, with different offset)
Track 06 : OK (v2, confidence 1/1, with different offset)
Track 07 : OK (v2, confidence 1/1, with different offset)
Track 08 : OK (v2, confidence 1/1, with different offset)
Track 09 : OK (v2, confidence 1/1, with different offset)
Track 10 : OK (v2, confidence 1/1, with different offset)
->All tracks accurately ripped.
All Tracks
Album gain : -5.68 dB
Peak : 0.988647
Statistics
Read error : 0
Jitter error (maybe fixed) : 0
Retry sector count : 11
Damaged sector count : 0
Track 01
Filename : /Users/STA/Documents/Rips/Wadada Leo Smith and Ed Blackwell - The Blue Mountain's Sun Drummer (1986) [FLAC]/01 Uprising.flac
Pre-gap length : 00:02:00
Track gain : -5.02 dB
Peak : 0.988617
CRC32 hash (test run) : 6F69692E
CRC32 hash : 6F69692E
CRC32 hash (skip zero) : 7BA11158
AccurateRip v1 signature : DAB3FC8A
AccurateRip v2 signature : A820E24C (46459DE0 w/correction)
->Accurately ripped with different offset (v2, confidence 1/1, offset +6)
Statistics
Read error : 0
Jitter error (maybe fixed) : 0
Retry sector count : 0
Damaged sector count : 0
Track 02
Filename : /Users/STA/Documents/Rips/Wadada Leo Smith and Ed Blackwell - The Blue Mountain's Sun Drummer (1986) [FLAC]/02 Love.flac
Pre-gap length : 00:00:28
Track gain : -5.71 dB
Peak : 0.988617
CRC32 hash (test run) : F96523A4
CRC32 hash : F96523A4
CRC32 hash (skip zero) : 55595753
AccurateRip v1 signature : A27112E9
AccurateRip v2 signature : 03AD3986 (F2B19752 w/correction)
->Accurately ripped with different offset (v2, confidence 1/1, offset +6)
Statistics
Read error : 0
Jitter error (maybe fixed) : 0
Retry sector count : 0
Damaged sector count : 0
Track 03
Filename : /Users/STA/Documents/Rips/Wadada Leo Smith and Ed Blackwell - The Blue Mountain's Sun Drummer (1986) [FLAC]/03 Seeds of a Forgotten Flower .flac
Pre-gap length : 00:00:48
Track gain : 1.05 dB
Peak : 0.988556
CRC32 hash (test run) : CA7FD1D8
CRC32 hash : CA7FD1D8
CRC32 hash (skip zero) : 28B707EB
AccurateRip v1 signature : C3C77AE6
AccurateRip v2 signature : 2FC0D47B (6036BF1C w/correction)
->Accurately ripped with different offset (v2, confidence 1/1, offset +6)
Statistics
Read error : 0
Jitter error (maybe fixed) : 0
Retry sector count : 0
Damaged sector count : 0
Track 04
Filename : /Users/STA/Documents/Rips/Wadada Leo Smith and Ed Blackwell - The Blue Mountain's Sun Drummer (1986) [FLAC]/04 The Blue Mountain's Sun Drummer .flac
Pre-gap length : 00:00:27
Track gain : -5.18 dB
Peak : 0.988617
CRC32 hash (test run) : C0753148
CRC32 hash : C0753148
CRC32 hash (skip zero) : DDD46CA2
AccurateRip v1 signature : 200021FB
AccurateRip v2 signature : 3B61C028 (FEA83603 w/correction)
->Accurately ripped with different offset (v2, confidence 1/1, offset +6)
Statistics
Read error : 0
Jitter error (maybe fixed) : 0
Retry sector count : 0
Damaged sector count : 0
Track 05
Filename : /Users/STA/Documents/Rips/Wadada Leo Smith and Ed Blackwell - The Blue Mountain's Sun Drummer (1986) [FLAC]/05 Mto: the Celestial River .flac
Pre-gap length : 00:02:07
Track gain : -5.86 dB
Peak : 0.988586
CRC32 hash (test run) : 2F78F014
CRC32 hash : 2F78F014
CRC32 hash (skip zero) : 2978D2D3
AccurateRip v1 signature : 79EABD4B
AccurateRip v2 signature : F985220D (87F0511E w/correction)
->Accurately ripped with different offset (v2, confidence 1/1, offset +6)
Statistics
Read error : 0
Jitter error (maybe fixed) : 0
Retry sector count : 11
Damaged sector count : 0
Track 06
Filename : /Users/STA/Documents/Rips/Wadada Leo Smith and Ed Blackwell - The Blue Mountain's Sun Drummer (1986) [FLAC]/06 Don't You Remember .flac
Pre-gap length : 00:00:59
Track gain : -3.23 dB
Peak : 0.988647
CRC32 hash (test run) : 96FED43D
CRC32 hash : 96FED43D
CRC32 hash (skip zero) : 8A820EE8
AccurateRip v1 signature : 31D1A178
AccurateRip v2 signature : 1AF7FC3F (8898AB24 w/correction)
->Accurately ripped with different offset (v2, confidence 1/1, offset +6)
Statistics
Read error : 0
Jitter error (maybe fixed) : 0
Retry sector count : 0
Damaged sector count : 0
Track 07
Filename : /Users/STA/Documents/Rips/Wadada Leo Smith and Ed Blackwell - The Blue Mountain's Sun Drummer (1986) [FLAC]/07 Sellassie.flac
Track gain : -6.18 dB
Peak : 0.988617
CRC32 hash (test run) : FDA7E0A4
CRC32 hash : FDA7E0A4
CRC32 hash (skip zero) : 9E8B833B
AccurateRip v1 signature : 191CC25F
AccurateRip v2 signature : D1566EB1 (BC7234D2 w/correction)
->Accurately ripped with different offset (v2, confidence 1/1, offset +6)
Statistics
Read error : 0
Jitter error (maybe fixed) : 0
Retry sector count : 0
Damaged sector count : 0
Track 08
Filename : /Users/STA/Documents/Rips/Wadada Leo Smith and Ed Blackwell - The Blue Mountain's Sun Drummer (1986) [FLAC]/08 Seven Arrows In the Garden of Light .flac
Track gain : -2.93 dB
Peak : 0.988556
CRC32 hash (test run) : A0D1C1BA
CRC32 hash : A0D1C1BA
CRC32 hash (skip zero) : 37D6F10A
AccurateRip v1 signature : 091519B5
AccurateRip v2 signature : 055DC37E (EDE16C7F w/correction)
->Accurately ripped with different offset (v2, confidence 1/1, offset +6)
Statistics
Read error : 0
Jitter error (maybe fixed) : 0
Retry sector count : 0
Damaged sector count : 0
Track 09
Filename : /Users/STA/Documents/Rips/Wadada Leo Smith and Ed Blackwell - The Blue Mountain's Sun Drummer (1986) [FLAC]/09 Buffalo People: a Blues Ritual Dance .flac
Pre-gap length : 00:00:44
Track gain : -6.01 dB
Peak : 0.988647
CRC32 hash (test run) : ED881A73
CRC32 hash : ED881A73
CRC32 hash (skip zero) : 0C7BE63A
AccurateRip v1 signature : 2D00970D
AccurateRip v2 signature : 8399D7E6 (2093147E w/correction)
->Accurately ripped with different offset (v2, confidence 1/1, offset +6)
Statistics
Read error : 0
Jitter error (maybe fixed) : 0
Retry sector count : 0
Damaged sector count : 0
Track 10
Filename : /Users/STA/Documents/Rips/Wadada Leo Smith and Ed Blackwell - The Blue Mountain's Sun Drummer (1986) [FLAC]/10 Albert Ayler In a Spiritual Light .flac
Track gain : -7.43 dB
Peak : 0.988617
CRC32 hash (test run) : 95756142
CRC32 hash : 95756142
CRC32 hash (skip zero) : 029928BF
AccurateRip v1 signature : 24F3C0BC
AccurateRip v2 signature : F020AD87 (ABC47D1D w/correction)
->Accurately ripped with different offset (v2, confidence 1/1, offset +6)
Statistics
Read error : 0
Jitter error (maybe fixed) : 0
Retry sector count : 0
Damaged sector count : 0
No errors occurred
End of status report
 
.cue
TITLE "The Blue Mountain's Sun Drummer "
PERFORMER "Wadada Leo Smith and Ed Blackwell "
REM GENRE "Jazz"
REM DATE "1986"
REM DISCID 900C1D0A
REM REPLAYGAIN_ALBUM_GAIN -5.68 dB
REM REPLAYGAIN_ALBUM_PEAK 0.988647
FILE "01 Uprising.flac" WAVE
TRACK 01 AUDIO
TITLE "Uprising"
ISRC US6XL0900011
REM REPLAYGAIN_TRACK_GAIN -5.02 dB
REM REPLAYGAIN_TRACK_PEAK 0.988617
INDEX 01 00:00:00
TRACK 02 AUDIO
TITLE "Love"
ISRC US6XL0900012
REM REPLAYGAIN_TRACK_GAIN -5.71 dB
REM REPLAYGAIN_TRACK_PEAK 0.988617
INDEX 00 04:41:23
FILE "02 Love.flac" WAVE
INDEX 01 00:00:00
TRACK 03 AUDIO
TITLE "Seeds of a Forgotten Flower "
ISRC US6XL0900013
REM REPLAYGAIN_TRACK_GAIN 1.05 dB
REM REPLAYGAIN_TRACK_PEAK 0.988556
INDEX 00 05:10:54
FILE "03 Seeds of a Forgotten Flower .flac" WAVE
INDEX 01 00:00:00
TRACK 04 AUDIO
TITLE "The Blue Mountain's Sun Drummer "
ISRC US6XL0900014
REM REPLAYGAIN_TRACK_GAIN -5.18 dB
REM REPLAYGAIN_TRACK_PEAK 0.988617
INDEX 00 02:22:43
FILE "04 The Blue Mountain's Sun Drummer .flac" WAVE
INDEX 01 00:00:00
TRACK 05 AUDIO
TITLE "Mto: the Celestial River "
ISRC US6XL0900015
REM REPLAYGAIN_TRACK_GAIN -5.86 dB
REM REPLAYGAIN_TRACK_PEAK 0.988586
INDEX 00 06:35:00
FILE "05 Mto: the Celestial River .flac" WAVE
INDEX 01 00:00:00
TRACK 06 AUDIO
TITLE "Don't You Remember "
ISRC US6XL0900016
REM REPLAYGAIN_TRACK_GAIN -3.23 dB
REM REPLAYGAIN_TRACK_PEAK 0.988647
INDEX 00 06:45:54
FILE "06 Don't You Remember .flac" WAVE
INDEX 01 00:00:00
FILE "07 Sellassie.flac" WAVE
TRACK 07 AUDIO
TITLE "Sellassie"
ISRC US6XL0900017
REM REPLAYGAIN_TRACK_GAIN -6.18 dB
REM REPLAYGAIN_TRACK_PEAK 0.988617
INDEX 01 00:00:00
FILE "08 Seven Arrows In the Garden of Light .flac" WAVE
TRACK 08 AUDIO
TITLE "Seven Arrows In the Garden of Light "
ISRC US6XL0900018
REM REPLAYGAIN_TRACK_GAIN -2.93 dB
REM REPLAYGAIN_TRACK_PEAK 0.988556
INDEX 01 00:00:00
TRACK 09 AUDIO
TITLE "Buffalo People: a Blues Ritual Dance "
ISRC US6XL0900019
REM REPLAYGAIN_TRACK_GAIN -6.01 dB
REM REPLAYGAIN_TRACK_PEAK 0.988647
INDEX 00 03:56:65
FILE "09 Buffalo People: a Blues Ritual Dance .flac" WAVE
INDEX 01 00:00:00
FILE "10 Albert Ayler In a Spiritual Light .flac" WAVE
TRACK 10 AUDIO
TITLE "Albert Ayler In a Spiritual Light "
ISRC US6XL0900020
REM REPLAYGAIN_TRACK_GAIN -7.43 dB
REM REPLAYGAIN_TRACK_PEAK 0.988617
INDEX 01 00:00:00

другие релизы
Any questions -> support@pro-jazz.com. По всем вопросам пишите -> support@pro-jazz.com
03:42
132
Нет комментариев. Ваш будет первым!