Вы используете незарегистрированную версию компонента "Вкладки"!

Поиск

(Free Jazz) Tripleplay (Nate McBride, Curt Newton, Ken Vandermark) - Expansion Slang - 2000, FLAC (image+.cue), lossless

(Free Jazz) Tripleplay (Nate McBride, Curt Newton, Ken Vandermark) - Expansion Slang - 2000, FLAC (image+.cue), lossless
Треклист:
Tripleplay / Expansion Slang
Жанр: Free Jazz
Страна-производитель диска: US
Год издания диска: 2000
Издатель (лейбл): Boxholder Records
Номер по каталогу: BXH 006
Аудиокодек: FLAC (*.flac)
Тип рипа: image+.cue
Битрейт аудио: lossless
Продолжительность: 59:50
Источник (релизер): cd
Наличие сканов в содержимом раздачи: нет
Треклист:
1. Optica Torre 12:18
2. Daka Du 6:50
3. Alumni Forms 14:56
4. Hook And Ladder 4:16
5. In Sequence 21:13
 
Лог создания рипа
Exact Audio Copy V1.0 beta 2 from 29. April 2011
EAC extraction logfile from 8. September 2011, 22:10
Tripleplay / Expansion Slang
Used drive : Optiarc DVD RW AD-7170A Adapter: 0 ID: 0
Read mode : Secure
Utilize accurate stream : Yes
Defeat audio cache : Yes
Make use of C2 pointers : No
Read offset correction : 48
Overread into Lead-In and Lead-Out : No
Fill up missing offset samples with silence : Yes
Delete leading and trailing silent blocks : No
Null samples used in CRC calculations : Yes
Used interface : Native Win32 interface for Win NT & 2000
Used output format : User Defined Encoder
Selected bitrate : 320 kBit/s
Quality : High
Add ID3 tag : No
Command line compressor : C:\Program Files\Exact Audio Copy\Flac\flac.exe
Additional command line options : -V -8 -T "Date=%year%" -T "Genre=%genre%" %source%
TOC of the extracted CD
Track | Start | Length | Start sector | End sector
---------------------------------------------------------
1 | 0:00.00 | 12:21.20 | 0 | 55594
2 | 12:21.20 | 6:54.65 | 55595 | 86709
3 | 19:16.10 | 15:00.50 | 86710 | 154259
4 | 34:16.60 | 4:19.27 | 154260 | 173711
5 | 38:36.12 | 21:14.15 | 173712 | 269276
Range status and errors
Selected range
Filename C:\EAC\Downloads\Tripleplay - Expansion Slang.wav
Peak level 94.9 %
Extraction speed 5.0 X
Range quality 100.0 %
Test CRC 94E827C7
Copy CRC 94E827C7
Copy OK
No errors occurred
AccurateRip summary
Track 1 accurately ripped (confidence 1) [6AA08ECF] (AR v1)
Track 2 accurately ripped (confidence 1) [A1E172D9] (AR v1)
Track 3 accurately ripped (confidence 1) [6BD36FA0] (AR v1)
Track 4 accurately ripped (confidence 1) [D865E4D2] (AR v1)
Track 5 accurately ripped (confidence 1) [87486ECC] (AR v1)
All tracks accurately ripped
End of status report
==== Log checksum D659298E6F37A0D4494C5B3972FF73F959B762A95F8C8897A207149FA178609E ====
 
Содержание индексной карты (.CUE)
REM GENRE Jazz
REM DATE 1999
REM DISCID 3C0E0605
REM COMMENT "ExactAudioCopy v1.0b2"
PERFORMER "Tripleplay"
TITLE "Expansion Slang"
FILE "Tripleplay - Expansion Slang.flac" WAVE
TRACK 01 AUDIO
TITLE "Optica Torre"
PERFORMER "Tripleplay"
ISRC 000000000000
INDEX 01 00:00:00
TRACK 02 AUDIO
TITLE "Daka Du"
PERFORMER "Tripleplay"
ISRC 000000000000
INDEX 01 12:21:20
TRACK 03 AUDIO
TITLE "Alumni Forms"
PERFORMER "Tripleplay"
ISRC 000000000000
INDEX 01 19:16:10
TRACK 04 AUDIO
TITLE "Hook And Ladder"
PERFORMER "Tripleplay"
ISRC 000000000000
INDEX 01 34:16:60
TRACK 05 AUDIO
TITLE "In Sequence"
PERFORMER "Tripleplay"
ISRC 000000000000
INDEX 01 38:36:12
Доп. информация: Recorded on April 16 and 17. 1998 at PBS Studios, Westwood MA.
 
Состав
Nate McBride - bass
Curt Newton - drums
Ken Vandermark - reeds
По всем вопросам пишите личное сообщение пользователю M0p94ok.
16:39
137
Нет комментариев. Ваш будет первым!