Вы используете незарегистрированную версию компонента "Вкладки"!

Поиск

(free jazz) Trio X (joe mcphee, dominic duval, jay rosen) - The Sugar Hill Suite (2004), FLAC (tracks+.cue), lossless

(free jazz) Trio X (joe mcphee, dominic duval, jay rosen) - The Sugar Hill Suite (2004), FLAC (tracks+.cue), lossless
Треклист:

Trio X (joe mcphee, dominic duval, jay rosen) - The Sugar Hill Suite (2004)
Жанр: free jazz
Год издания диска: 2004
Издатель (лейбл): CIMP 320
Аудиокодек: FLAC (*.flac)
Тип рипа: tracks+.cue
Битрейт аудио: lossless
Продолжительность: 1`08`06
Источник (релизер): web, what.cd
Наличие сканов в содержимом раздачи: да
Joe McPhee (Tenor Saxophone);
Jay Rosen (Drums);
Dominic Duval (Bass).
Recorded October 19, 2004.
Треклист:
1. For Agusta Savage
2. Triple Play (For Jillian, Grace & Dominic)
3. Sometimes I Feel Like a Motherless Child
4. Drop Me Off in Harlem
5. The Sugar Hill Suite (For Samuel Rosen)
6. Little Sunflower
7. Monk’s Waltz
8. Goin’ Home
 
Содержание индексной карты (.CUE)
REM DATE 2004
REM DISCID 690FF508
REM COMMENT "ExactAudioCopy v0.95b4"
PERFORMER "Trio X"
TITLE "The Sugar Hill Suite"
FILE "01. For Agusta Savage.flac" WAVE
TRACK 01 AUDIO
TITLE "For Agusta Savage"
PERFORMER "Trio X"
INDEX 01 00:00:00
TRACK 02 AUDIO
TITLE "Triple Play"
PERFORMER "Trio X"
INDEX 00 05:26:62
FILE "02. Triple Play.flac" WAVE
INDEX 01 00:00:00
TRACK 03 AUDIO
TITLE "Sometimes I Feel Like a Motherless Child"
PERFORMER "Trio X"
INDEX 00 08:08:05
FILE "03. Sometimes I Feel Like a Motherless Child.flac" WAVE
INDEX 01 00:00:00
TRACK 04 AUDIO
TITLE "Drop Me Off in Harlem"
PERFORMER "Trio X"
INDEX 00 07:15:00
FILE "04. Drop Me Off in Harlem.flac" WAVE
INDEX 01 00:00:00
TRACK 05 AUDIO
TITLE "The Sugar Hill Suite"
PERFORMER "Trio X"
INDEX 00 06:53:46
FILE "05. The Sugar Hill Suite.flac" WAVE
INDEX 01 00:00:00
TRACK 06 AUDIO
TITLE "Little Sunflower"
PERFORMER "Trio X"
INDEX 00 16:51:34
FILE "06. Little Sunflower.flac" WAVE
INDEX 01 00:00:00
TRACK 07 AUDIO
TITLE "Monk's Waltz"
PERFORMER "Trio X"
INDEX 00 11:32:70
FILE "07. Monk's Waltz.flac" WAVE
INDEX 01 00:00:00
TRACK 08 AUDIO
TITLE "Goin' Home"
PERFORMER "Trio X"
INDEX 00 04:43:28
FILE "08. Goin' Home.flac" WAVE
INDEX 01 00:00:00
 
Лог проверки качества
auCDtect: CD records authenticity detector, version 0.8.2
Copyright (c) 2004 Oleg Berngardt. All rights reserved.
Copyright (c) 2004 Alexander Djourik. All rights reserved.
------------------------------------------------------------
Processing file: [01 - For Agusta Savage.wav]
------------------------------------------------------------
This track looks like CDDA with probability 100%
------------------------------------------------------------
Processing file: [02. Triple Play.wav]
------------------------------------------------------------
This track looks like CDDA with probability 99%
------------------------------------------------------------
Processing file: [03. Sometimes I Feel Like a Motherless Child.wav]
------------------------------------------------------------
This track looks like CDDA with probability 100%
------------------------------------------------------------
Processing file: [04. Drop Me Off in Harlem.wav]
------------------------------------------------------------
This track looks like CDDA with probability 100%
------------------------------------------------------------
Processing file: [05. The Sugar Hill Suite.wav]
------------------------------------------------------------
This track looks like CDDA with probability 100%
------------------------------------------------------------
Processing file: [06. Little Sunflower.wav]
------------------------------------------------------------
This track looks like CDDA with probability 100%
------------------------------------------------------------
Processing file: [07. Monk's Waltz.wav]
------------------------------------------------------------
This track looks like CDDA with probability 99%
------------------------------------------------------------
Processing file: [08. Goin' Home.wav]
------------------------------------------------------------
This track looks like CDDA with probability 100%
------------------------------------------------------------
Final Conclusion:
------------------------------------------------------------
These tracks looks like CDDA with probability 100%
другие релизы
Any questions -> support@pro-jazz.com. По всем вопросам пишите -> support@pro-jazz.com
19:20
164
Нет комментариев. Ваш будет первым!