Вы используете незарегистрированную версию компонента "Вкладки"!

Поиск

(free jazz) Tony Malaby's Novela arr. by Kris Davis 2011, FLAC (tracks+.cue), lossless

(free jazz) Tony Malaby's Novela arr. by Kris Davis 2011, FLAC (tracks+.cue), lossless
Треклист:


Tony Malaby's Novela arr. by Kris Davis 2011

Жанр: free jazz
Год выпуска: 2011
Издатель (лейбл):Clean Feed / CF232CD
Формат: FLAC (tracks+.cue)
Битрейт аудио: lossless
Продолжительность 49`13
Источник: what.cd
Andrew Hadro (bs), Ben Gerstein (tb), Dan Peck (tba), Joachim Badenhorst (bcl), John Hollenbeck (d), Kris Davis (p), Michael Attias (as), Ralph Alessi (t), Tony Malaby (ts),

tracks

01 Floating Head
02 Floral and Herbaceous
03 Warblepeck
04 Mother's Love
05 Cosas
06 Remolino


 
.log
X Lossless Decoder version 20121222 (142.2)
XLD extraction logfile from 2013-01-12 04:59:48 +0400
Tony Malaby's Novela / Tony Malaby's Novela
Used drive : HL-DT-ST DVDRW GX30N (revision RP09)
Media type : Pressed CD
Ripper mode : XLD Secure Ripper
Disable audio cache : OK for the drive with a cache less than 1375KiB
Make use of C2 pointers : NO
Read offset correction : 6
Max retry count : 20
Gap status : Analyzed, Appended
TOC of the extracted CD
Track | Start | Length | Start sector | End sector
---------------------------------------------------------
1 | 00:00:00 | 09:35:70 | 0 | 43194
2 | 09:35:70 | 07:45:48 | 43195 | 78117
3 | 17:21:43 | 04:54:01 | 78118 | 100168
4 | 22:15:44 | 09:34:23 | 100169 | 143241
5 | 31:49:67 | 04:36:41 | 143242 | 163982
6 | 36:26:33 | 12:46:57 | 163983 | 221489
AccurateRip Summary (DiscID: 000b7275-003c9b77-4a0b8906)
Track 01 : OK (v2, confidence 1/1)
Track 02 : OK (v2, confidence 1/1)
Track 03 : OK (v2, confidence 1/1)
Track 04 : OK (v2, confidence 1/1)
Track 05 : OK (v2, confidence 1/1)
Track 06 : OK (v2, confidence 1/1)
->All tracks accurately ripped.
All Tracks
Album gain : -6.44 dB
Peak : 0.999512
Statistics
Read error : 0
Jitter error (maybe fixed) : 0
Retry sector count : 0
Damaged sector count : 0
Track 01
Filename : /Users/anch/Music/FLAC/Tony Malaby's Novela - 2011 - Tony Malaby's Novela [FLAC]/01 - Floating Head.flac
/Users/anch/Music/FLAC/Tony Malaby's Novela - 2011 - Tony Malaby's Novela [MP3 320]/01 - Floating Head.mp3
/Users/anch/Music/FLAC/Tony Malaby's Novela - 2011 - Tony Malaby's Novela [MP3 V0]/01 - Floating Head.mp3
Pre-gap length : 00:02:00
Track gain : -6.22 dB
Peak : 0.976685
CRC32 hash (test run) : 274FA72F
CRC32 hash : 274FA72F
CRC32 hash (skip zero) : BE7A816B
AccurateRip v1 signature : DFB7E837
AccurateRip v2 signature : FCE22C0C
->Accurately ripped (v2, confidence 1/1)
Statistics
Read error : 0
Jitter error (maybe fixed) : 0
Retry sector count : 0
Damaged sector count : 0
Track 02
Filename : /Users/anch/Music/FLAC/Tony Malaby's Novela - 2011 - Tony Malaby's Novela [FLAC]/02 - Floral and Herbaceous.flac
/Users/anch/Music/FLAC/Tony Malaby's Novela - 2011 - Tony Malaby's Novela [MP3 320]/02 - Floral and Herbaceous.mp3
/Users/anch/Music/FLAC/Tony Malaby's Novela - 2011 - Tony Malaby's Novela [MP3 V0]/02 - Floral and Herbaceous.mp3
Pre-gap length : 00:02:00
Track gain : -7.07 dB
Peak : 0.999512
CRC32 hash (test run) : 3406210A
CRC32 hash : 3406210A
CRC32 hash (skip zero) : 92122FC2
AccurateRip v1 signature : DC416E1B
AccurateRip v2 signature : 1D4F15FD
->Accurately ripped (v2, confidence 1/1)
Statistics
Read error : 0
Jitter error (maybe fixed) : 0
Retry sector count : 0
Damaged sector count : 0
Track 03
Filename : /Users/anch/Music/FLAC/Tony Malaby's Novela - 2011 - Tony Malaby's Novela [FLAC]/03 - Warblepeck.flac
/Users/anch/Music/FLAC/Tony Malaby's Novela - 2011 - Tony Malaby's Novela [MP3 320]/03 - Warblepeck.mp3
/Users/anch/Music/FLAC/Tony Malaby's Novela - 2011 - Tony Malaby's Novela [MP3 V0]/03 - Warblepeck.mp3
Pre-gap length : 00:02:00
Track gain : -6.41 dB
Peak : 0.968201
CRC32 hash (test run) : C831D640
CRC32 hash : C831D640
CRC32 hash (skip zero) : 91A9F1B6
AccurateRip v1 signature : 48B2A95C
AccurateRip v2 signature : 1BCA83EE
->Accurately ripped (v2, confidence 1/1)
Statistics
Read error : 0
Jitter error (maybe fixed) : 0
Retry sector count : 0
Damaged sector count : 0
Track 04
Filename : /Users/anch/Music/FLAC/Tony Malaby's Novela - 2011 - Tony Malaby's Novela [FLAC]/04 - Mother's Love.flac
/Users/anch/Music/FLAC/Tony Malaby's Novela - 2011 - Tony Malaby's Novela [MP3 320]/04 - Mother's Love.mp3
/Users/anch/Music/FLAC/Tony Malaby's Novela - 2011 - Tony Malaby's Novela [MP3 V0]/04 - Mother's Love.mp3
Pre-gap length : 00:02:00
Track gain : -2.59 dB
Peak : 0.986267
CRC32 hash (test run) : 928BBDA1
CRC32 hash : 928BBDA1
CRC32 hash (skip zero) : 67F962E5
AccurateRip v1 signature : 5DE26CE7
AccurateRip v2 signature : F3B380A1
->Accurately ripped (v2, confidence 1/1)
Statistics
Read error : 0
Jitter error (maybe fixed) : 0
Retry sector count : 0
Damaged sector count : 0
Track 05
Filename : /Users/anch/Music/FLAC/Tony Malaby's Novela - 2011 - Tony Malaby's Novela [FLAC]/05 - Cosas.flac
/Users/anch/Music/FLAC/Tony Malaby's Novela - 2011 - Tony Malaby's Novela [MP3 320]/05 - Cosas.mp3
/Users/anch/Music/FLAC/Tony Malaby's Novela - 2011 - Tony Malaby's Novela [MP3 V0]/05 - Cosas.mp3
Track gain : -6.79 dB
Peak : 0.986053
CRC32 hash (test run) : 6FCEF830
CRC32 hash : 6FCEF830
CRC32 hash (skip zero) : D34A7697
AccurateRip v1 signature : 4C2C95B5
AccurateRip v2 signature : 42F323BB
->Accurately ripped (v2, confidence 1/1)
Statistics
Read error : 0
Jitter error (maybe fixed) : 0
Retry sector count : 0
Damaged sector count : 0
Track 06
Filename : /Users/anch/Music/FLAC/Tony Malaby's Novela - 2011 - Tony Malaby's Novela [FLAC]/06 - Remolino.flac
/Users/anch/Music/FLAC/Tony Malaby's Novela - 2011 - Tony Malaby's Novela [MP3 320]/06 - Remolino.mp3
/Users/anch/Music/FLAC/Tony Malaby's Novela - 2011 - Tony Malaby's Novela [MP3 V0]/06 - Remolino.mp3
Pre-gap length : 00:02:00
Track gain : -6.61 dB
Peak : 0.986267
CRC32 hash (test run) : 64AD84AF
CRC32 hash : 64AD84AF
CRC32 hash (skip zero) : 7710C55A
AccurateRip v1 signature : BB57AB5E
AccurateRip v2 signature : 24ED29AE
->Accurately ripped (v2, confidence 1/1)
Statistics
Read error : 0
Jitter error (maybe fixed) : 0
Retry sector count : 0
Damaged sector count : 0
No errors occurred
End of status report
 
.cue
TITLE "Tony Malaby's Novela arr. by Kris Davis"
PERFORMER "Tony Malaby"
REM GENRE "Free Jazz"
REM DATE "2011"
REM DISCID 4A0B8906
REM REPLAYGAIN_ALBUM_GAIN -6.44 dB
REM REPLAYGAIN_ALBUM_PEAK 0.999512
FILE "01 - Floating Head.flac" WAVE
TRACK 01 AUDIO
TITLE "Floating Head"
PERFORMER "Tony Malaby"
ISRC PTNF11108882
REM REPLAYGAIN_TRACK_GAIN -6.22 dB
REM REPLAYGAIN_TRACK_PEAK 0.976685
INDEX 01 00:00:00
TRACK 02 AUDIO
TITLE "Floral and Herbaceous"
PERFORMER "Tony Malaby"
ISRC PTNF11108883
REM REPLAYGAIN_TRACK_GAIN -7.07 dB
REM REPLAYGAIN_TRACK_PEAK 0.999512
INDEX 00 09:33:70
FILE "02 - Floral and Herbaceous.flac" WAVE
INDEX 01 00:00:00
TRACK 03 AUDIO
TITLE "Warblepeck"
PERFORMER "Tony Malaby"
ISRC PTNF11108884
REM REPLAYGAIN_TRACK_GAIN -6.41 dB
REM REPLAYGAIN_TRACK_PEAK 0.968201
INDEX 00 07:43:48
FILE "03 - Warblepeck.flac" WAVE
INDEX 01 00:00:00
TRACK 04 AUDIO
TITLE "Mother's Love"
PERFORMER "Tony Malaby"
ISRC PTNF11108885
REM REPLAYGAIN_TRACK_GAIN -2.59 dB
REM REPLAYGAIN_TRACK_PEAK 0.986267
INDEX 00 04:52:01
FILE "04 - Mother's Love.flac" WAVE
INDEX 01 00:00:00
FILE "05 - Cosas.flac" WAVE
TRACK 05 AUDIO
TITLE "Cosas"
PERFORMER "Tony Malaby"
ISRC PTNF11108886
REM REPLAYGAIN_TRACK_GAIN -6.79 dB
REM REPLAYGAIN_TRACK_PEAK 0.986053
INDEX 01 00:00:00
TRACK 06 AUDIO
TITLE "Remolino"
PERFORMER "Tony Malaby"
ISRC PTNF11108887
REM REPLAYGAIN_TRACK_GAIN -6.61 dB
REM REPLAYGAIN_TRACK_PEAK 0.986267
INDEX 00 04:34:41
FILE "06 - Remolino.flac" WAVE
INDEX 01 00:00:00

другие релизы
Any questions -> support@pro-jazz.com. По всем вопросам пишите -> support@pro-jazz.com
07:52
161
Нет комментариев. Ваш будет первым!