Вы используете незарегистрированную версию компонента "Вкладки"!

Поиск

(Free Jazz) Sun Ra - Media Dreams - 2008 (1978), FLAC (tracks+.cue), lossless

Треклист:
Sun Ra - Media Dreams
Жанр: Free Jazz
Год выпуска диска: 2008
Производитель диска: Art Yard (ART YARD CD002)
Источник: вот.сиди (beatledennis)
Аудио кодек: FLAC
Тип рипа: tracks+.cue
Битрейт аудио: lossless
Продолжительность: 1:36:12
Треклист:
1-1 Saturn Research 3:03
1-2 Constellation 13:30
1-3 Yera Of The Sun 4:36
1-4 Media Dreams 13:39
1-5 Twigs At Twilight 7:23
1-6 An Unbeknowneth Love 4:41
2-1 Friendly Galaxy 8:07
2-2 An Unbeknowneth Love 5:47
2-3 Of Other Tomorrows Never Known 8:09
2-4 Images 13:41
2-5 The Truth About Planet Earth 6:57
2-6 Space Is The Place 3:45
2-7 The Shadow World 2:47
Recorded live in Italy in 1978.
Luqman Ali drums, vocals
Sun Ra piano, organ, synthesizer, drum programming [rhythm machine]
John Gilmore tenor saxophone, drums, vocals
Michael Ray trumpet, vocals
 
Отчёт XLD
 
I
X Lossless Decoder version 20100704 (120.4)
XLD extraction logfile from 2010-07-21 17:02:52 +0300
Sun Ra / Media Dreams (Disk 1)
Used drive : MATSHITA DVD-R UJ-868 (revision KB19)
Use cdparanoia mode : YES (CDParanoia III 10.2 engine)
Disable audio cache : OK for the drive with cache less than 2750KB
Make use of C2 pointers : NO
Read offset correction : 102
Max retry count : 100
Gap status : Analyzed, Appended
TOC of the extracted CD
Track | Start | Length | Start sector | End sector
---------------------------------------------------------
1 | 00:00:00 | 03:03:65 | 0 | 13789
2 | 03:03:65 | 13:30:03 | 13790 | 74542
3 | 16:33:68 | 04:36:59 | 74543 | 95301
4 | 21:10:52 | 13:39:04 | 95302 | 156730
5 | 34:49:56 | 07:23:03 | 156731 | 189958
6 | 42:12:59 | 04:41:67 | 189959 | 211100
Track 01
Filename : /Muzak/Sun Ra - 2008 - Media Dreams/Disc 1/01 - Saturn Research.flac
Pre-gap length : 00:02:00
CRC32 hash (test run) : FF92B022
CRC32 hash : FF92B022
CRC32 hash (skip zero) : 82C4A546
AccurateRip signature : 01CD7131
->Accurately ripped! (confidence 2)
Statistics
Read error : 0
Skipped (treated as error) : 0
Edge jitter error (maybe fixed) : 0
Atom jitter error (maybe fixed) : 0
Drift error (maybe fixed) : 0
Dropped bytes error (maybe fixed) : 0
Duplicated bytes error (maybe fixed) : 0
Inconsistency in error sectors : 0
Track 02
Filename : /Muzak/Sun Ra - 2008 - Media Dreams/Disc 1/02 - Constellation.flac
Pre-gap length : 00:00:13
CRC32 hash (test run) : D1FC06F5
CRC32 hash : D1FC06F5
CRC32 hash (skip zero) : FB5330D0
AccurateRip signature : 4536ED92
->Accurately ripped! (confidence 2)
Statistics
Read error : 0
Skipped (treated as error) : 0
Edge jitter error (maybe fixed) : 0
Atom jitter error (maybe fixed) : 0
Drift error (maybe fixed) : 0
Dropped bytes error (maybe fixed) : 0
Duplicated bytes error (maybe fixed) : 0
Inconsistency in error sectors : 0
Track 03
Filename : /Muzak/Sun Ra - 2008 - Media Dreams/Disc 1/03 - Yera Of The Sun.flac
Pre-gap length : 00:01:49
CRC32 hash (test run) : 41CD53D1
CRC32 hash : 41CD53D1
CRC32 hash (skip zero) : F13FBAAA
AccurateRip signature : 7A0A83FA
->Accurately ripped! (confidence 2)
Statistics
Read error : 0
Skipped (treated as error) : 0
Edge jitter error (maybe fixed) : 0
Atom jitter error (maybe fixed) : 0
Drift error (maybe fixed) : 0
Dropped bytes error (maybe fixed) : 0
Duplicated bytes error (maybe fixed) : 0
Inconsistency in error sectors : 0
Track 04
Filename : /Muzak/Sun Ra - 2008 - Media Dreams/Disc 1/04 - Media Dreams.flac
Pre-gap length : 00:02:00
CRC32 hash (test run) : 73E36A36
CRC32 hash : 73E36A36
CRC32 hash (skip zero) : 1361C5C2
AccurateRip signature : 5078A248
->Accurately ripped! (confidence 2)
Statistics
Read error : 0
Skipped (treated as error) : 0
Edge jitter error (maybe fixed) : 0
Atom jitter error (maybe fixed) : 0
Drift error (maybe fixed) : 0
Dropped bytes error (maybe fixed) : 0
Duplicated bytes error (maybe fixed) : 0
Inconsistency in error sectors : 0
Track 05
Filename : /Muzak/Sun Ra - 2008 - Media Dreams/Disc 1/05 - Twings At Twilight.flac
Pre-gap length : 00:02:39
CRC32 hash (test run) : 1D5B0CFE
CRC32 hash : 1D5B0CFE
CRC32 hash (skip zero) : 5376F20F
AccurateRip signature : FBDDAD13
->Accurately ripped! (confidence 2)
Statistics
Read error : 0
Skipped (treated as error) : 0
Edge jitter error (maybe fixed) : 0
Atom jitter error (maybe fixed) : 0
Drift error (maybe fixed) : 0
Dropped bytes error (maybe fixed) : 0
Duplicated bytes error (maybe fixed) : 0
Inconsistency in error sectors : 0
Track 06
Filename : /Muzak/Sun Ra - 2008 - Media Dreams/Disc 1/06 - An Unbeknoweth Love.flac
Pre-gap length : 00:02:03
CRC32 hash (test run) : ED63D1A2
CRC32 hash : ED63D1A2
CRC32 hash (skip zero) : 2F879BAB
AccurateRip signature : A50FAF49
->Accurately ripped! (confidence 2)
Statistics
Read error : 0
Skipped (treated as error) : 0
Edge jitter error (maybe fixed) : 0
Atom jitter error (maybe fixed) : 0
Drift error (maybe fixed) : 0
Dropped bytes error (maybe fixed) : 0
Duplicated bytes error (maybe fixed) : 0
Inconsistency in error sectors : 0
No errors occurred
End of status report
 
II
X Lossless Decoder version 20100704 (120.4)
XLD extraction logfile from 2010-07-21 17:23:05 +0300
Sun Ra / Media Dreams (CD Two)
Used drive : MATSHITA DVD-R UJ-868 (revision KB19)
Use cdparanoia mode : YES (CDParanoia III 10.2 engine)
Disable audio cache : OK for the drive with cache less than 2750KB
Make use of C2 pointers : NO
Read offset correction : 102
Max retry count : 100
Gap status : Analyzed, Appended
TOC of the extracted CD
Track | Start | Length | Start sector | End sector
---------------------------------------------------------
1 | 00:00:00 | 08:07:35 | 0 | 36559
2 | 08:07:35 | 05:47:26 | 36560 | 62610
3 | 13:54:61 | 08:09:52 | 62611 | 99337
4 | 22:04:38 | 13:41:61 | 99338 | 160973
5 | 35:46:24 | 06:57:63 | 160974 | 192311
6 | 42:44:12 | 03:45:21 | 192312 | 209207
7 | 46:29:33 | 02:47:54 | 209208 | 221786
Track 01
Filename : /Muzak/Sun Ra - 2008 - Media Dreams/Disc 2/01 - Friendly Galaxy.flac
Pre-gap length : 00:02:00
CRC32 hash (test run) : 27C548C0
CRC32 hash : 27C548C0
CRC32 hash (skip zero) : 5A584C7D
AccurateRip signature : 2F05AAB2
->Accurately ripped! (confidence 2)
Statistics
Read error : 0
Skipped (treated as error) : 0
Edge jitter error (maybe fixed) : 0
Atom jitter error (maybe fixed) : 0
Drift error (maybe fixed) : 0
Dropped bytes error (maybe fixed) : 0
Duplicated bytes error (maybe fixed) : 0
Inconsistency in error sectors : 0
Track 02
Filename : /Muzak/Sun Ra - 2008 - Media Dreams/Disc 2/02 - An Unbeknowneth Love.flac
CRC32 hash (test run) : A23932A6
CRC32 hash : A23932A6
CRC32 hash (skip zero) : C1826869
AccurateRip signature : C4D8A845
->Accurately ripped! (confidence 2)
Statistics
Read error : 0
Skipped (treated as error) : 0
Edge jitter error (maybe fixed) : 0
Atom jitter error (maybe fixed) : 0
Drift error (maybe fixed) : 0
Dropped bytes error (maybe fixed) : 0
Duplicated bytes error (maybe fixed) : 0
Inconsistency in error sectors : 0
Track 03
Filename : /Muzak/Sun Ra - 2008 - Media Dreams/Disc 2/03 - Of Other Tomorrow Never Known.flac
Pre-gap length : 00:01:40
CRC32 hash (test run) : 4D2650EE
CRC32 hash : 4D2650EE
CRC32 hash (skip zero) : 6DF56DB1
AccurateRip signature : 7362F094
->Accurately ripped! (confidence 2)
Statistics
Read error : 0
Skipped (treated as error) : 0
Edge jitter error (maybe fixed) : 0
Atom jitter error (maybe fixed) : 0
Drift error (maybe fixed) : 0
Dropped bytes error (maybe fixed) : 0
Duplicated bytes error (maybe fixed) : 0
Inconsistency in error sectors : 0
Track 04
Filename : /Muzak/Sun Ra - 2008 - Media Dreams/Disc 2/04 - Images.flac
Pre-gap length : 00:01:64
CRC32 hash (test run) : CCD3E893
CRC32 hash : CCD3E893
CRC32 hash (skip zero) : 78DAB88D
AccurateRip signature : C4EF8B7F
->Accurately ripped! (confidence 2)
Statistics
Read error : 0
Skipped (treated as error) : 0
Edge jitter error (maybe fixed) : 0
Atom jitter error (maybe fixed) : 0
Drift error (maybe fixed) : 0
Dropped bytes error (maybe fixed) : 0
Duplicated bytes error (maybe fixed) : 0
Inconsistency in error sectors : 0
Track 05
Filename : /Muzak/Sun Ra - 2008 - Media Dreams/Disc 2/05 - The Truth About Planet Earth.flac
CRC32 hash (test run) : 48A4E744
CRC32 hash : 48A4E744
CRC32 hash (skip zero) : 1EF0994C
AccurateRip signature : 1482B8ED
->Accurately ripped! (confidence 2)
Statistics
Read error : 0
Skipped (treated as error) : 0
Edge jitter error (maybe fixed) : 0
Atom jitter error (maybe fixed) : 0
Drift error (maybe fixed) : 0
Dropped bytes error (maybe fixed) : 0
Duplicated bytes error (maybe fixed) : 0
Inconsistency in error sectors : 0
Track 06
Filename : /Muzak/Sun Ra - 2008 - Media Dreams/Disc 2/06 - Space Is The Place.flac
Pre-gap length : 00:01:60
CRC32 hash (test run) : 40589892
CRC32 hash : 40589892
CRC32 hash (skip zero) : 95946DE3
AccurateRip signature : 4CB66EB9
->Accurately ripped! (confidence 2)
Statistics
Read error : 0
Skipped (treated as error) : 0
Edge jitter error (maybe fixed) : 0
Atom jitter error (maybe fixed) : 0
Drift error (maybe fixed) : 0
Dropped bytes error (maybe fixed) : 0
Duplicated bytes error (maybe fixed) : 0
Inconsistency in error sectors : 0
Track 07
Filename : /Muzak/Sun Ra - 2008 - Media Dreams/Disc 2/07 - The Shadow World.flac
CRC32 hash (test run) : AFC26C29
CRC32 hash : AFC26C29
CRC32 hash (skip zero) : 9E828CC1
AccurateRip signature : F319AA60
->Accurately ripped! (confidence 2)
Statistics
Read error : 0
Skipped (treated as error) : 0
Edge jitter error (maybe fixed) : 0
Atom jitter error (maybe fixed) : 0
Drift error (maybe fixed) : 0
Dropped bytes error (maybe fixed) : 0
Duplicated bytes error (maybe fixed) : 0
Inconsistency in error sectors : 0
No errors occurred
End of status report
 
Отчёт Audiocheckera
 
I
AUDIOCHECKER v2.0 beta (build 457) - by Dester - opdester@freemail.hu
~~~~~~~~~~~~~~~~~~~~~~~~~~~~~~~~~~
-=== DO NOT EDIT THIS FILE! ===-
Path: ...\Disc 1
01 -=- 01 - Saturn Research.flac -=- CDDA (100%)
02 -=- 02 - Constellation.flac -=- CDDA (100%)
03 -=- 03 - Yera Of The Sun.flac -=- CDDA (99%)
04 -=- 04 - Media Dreams.flac -=- CDDA (92%)
05 -=- 05 - Twings At Twilight.flac -=- CDDA (100%)
06 -=- 06 - An Unbeknoweth Love.flac -=- CDDA (100%)
Summary 98,50% CDDA
92140484
 
II
AUDIOCHECKER v2.0 beta (build 457) - by Dester - opdester@freemail.hu
~~~~~~~~~~~~~~~~~~~~~~~~~~~~~~~~~~
-=== DO NOT EDIT THIS FILE! ===-
Path: ...\Disc 2
01 -=- 01 - Friendly Galaxy.flac -=- CDDA (100%)
02 -=- 02 - An Unbeknowneth Love.flac -=- CDDA (100%)
03 -=- 03 - Of Other Tomorrow Never Known.flac -=- CDDA (100%)
04 -=- 04 - Images.flac -=- CDDA (100%)
05 -=- 05 - The Truth About Planet Earth.flac -=- CDDA (100%)
06 -=- 06 - Space Is The Place.flac -=- CDDA (100%)
07 -=- 07 - The Shadow World.flac -=- CDDA (86%)
Summary 98,00% CDDA
185440804
 
cue
 
I
TITLE "Media Dreams (Disk 1)"
PERFORMER "Sun Ra"
CATALOG 7527250242286
REM GENRE "Jazz"
REM DATE 1978
REM DISCID 4D0AFE06
FILE "01 - Saturn Research.wav" WAVE
TRACK 01 AUDIO
TITLE "Saturn Research"
ISRC GBTFX0700030
INDEX 01 00:00:00
TRACK 02 AUDIO
TITLE "Constellation"
ISRC GBTFX0700031
INDEX 00 03:03:52
FILE "02 - Constellation.wav" WAVE
INDEX 01 00:00:00
TRACK 03 AUDIO
TITLE "Yera Of The Sun"
ISRC GBTFX0700032
INDEX 00 13:28:29
FILE "03 - Yera Of The Sun.wav" WAVE
INDEX 01 00:00:00
TRACK 04 AUDIO
TITLE "Media Dreams"
ISRC GBTFX0700033
INDEX 00 04:34:59
FILE "04 - Media Dreams.wav" WAVE
INDEX 01 00:00:00
TRACK 05 AUDIO
TITLE "Twings At Twilight"
ISRC GBTFX0700034
INDEX 00 13:36:40
FILE "05 - Twings At Twilight.wav" WAVE
INDEX 01 00:00:00
TRACK 06 AUDIO
TITLE "An Unbeknoweth Love"
ISRC GBTFX0700035
INDEX 00 07:21:00
FILE "06 - An Unbeknoweth Love.wav" WAVE
INDEX 01 00:00:00
 
II
TITLE "Media Dreams (CD Two)"
PERFORMER "Sun Ra"
CATALOG 7527250242286
REM GENRE "Jazz"
REM DATE 1978
REM DISCID 690B8D07
FILE "01 - Friendly Galaxy.wav" WAVE
TRACK 01 AUDIO
TITLE "Friendly Galaxy"
ISRC GBTFX0700036
INDEX 01 00:00:00
FILE "02 - An Unbeknowneth Love.wav" WAVE
TRACK 02 AUDIO
TITLE "An Unbeknowneth Love"
ISRC GBTFX0700037
INDEX 01 00:00:00
TRACK 03 AUDIO
TITLE "Of Other Tomorrow Never Known"
ISRC GBTFX0700038
INDEX 00 05:45:61
FILE "03 - Of Other Tomorrow Never Known.wav" WAVE
INDEX 01 00:00:00
TRACK 04 AUDIO
TITLE "Images"
ISRC GBTFX0700039
INDEX 00 08:07:63
FILE "04 - Images.wav" WAVE
INDEX 01 00:00:00
FILE "05 - The Truth About Planet Earth.wav" WAVE
TRACK 05 AUDIO
TITLE "The Truth About Planet Earth"
ISRC GBTFX0700040
INDEX 01 00:00:00
TRACK 06 AUDIO
TITLE "Space Is The Place"
ISRC GBTFX0700041
INDEX 00 06:56:03
FILE "06 - Space Is The Place.wav" WAVE
INDEX 01 00:00:00
FILE "07 - The Shadow World.wav" WAVE
TRACK 07 AUDIO
TITLE "The Shadow World"
ISRC GBTFX0700042
INDEX 01 00:00:00
По всем вопросам пишите личное сообщение пользователю M0p94ok.
02:00
302
Нет комментариев. Ваш будет первым!