Вы используете незарегистрированную версию компонента "Вкладки"!

Поиск

(free jazz) Steve Lacy Trio - The Holy la - 2004, FLAC (tracks+.cue) lossless

Треклист:
Steve Lacy Trio - The Holy la
Жанр: free jazz
Страна-производитель диска: France
Год издания диска: 2004
Издатель (лейбл): Free Lance
Номер по каталогу: FRL-NS 0201
Страна: France
Аудио кодек: FLAC (*.flac)
Тип рипа: tracks+.cue
Битрейт аудио: lossless
Продолжительность: 54:45
Источник (релизер): собственный рип с оригинального диска.
Наличие сканов в содержимом раздачи: да
Треклист:
01. Shuffle Boil - 5:36
02. The Holy La - 4:17
03. Inside My Head - 4:52
04. Blue Jay - 3:47
05. Flakes - 5:54
06.The Wane - 9:02
07. Cliches - 9:21
08. Retreat - 7:39
09. The Door - 4:25
 
Лог создания рипа
Exact Audio Copy V0.99 prebeta 5 from 4. May 2009
EAC extraction logfile from 3. February 2011, 1:15
Steve Lacy Trio / The Holy la
Used drive : TSSTcorpCDDVDW SH-S222A Adapter: 1 ID: 0
Read mode : Secure
Utilize accurate stream : Yes
Defeat audio cache : Yes
Make use of C2 pointers : No
Read offset correction : 6
Overread into Lead-In and Lead-Out : No
Fill up missing offset samples with silence : Yes
Delete leading and trailing silent blocks : No
Null samples used in CRC calculations : Yes
Used interface : Installed external ASPI interface
Gap handling : Appended to previous track
Used output format : User Defined Encoder
Selected bitrate : 768 kBit/s
Quality : High
Add ID3 tag : No
Command line compressor : C:\Tool\Compress\FLAC\flac.exe
Additional command line options : -V -8 -T "ARTIST=%a" -T "TITLE=%t" -T "ALBUM=%g" -T "TRACKNUMBER=%n" -T "GENRE=%m" %s
TOC of the extracted CD
Track | Start | Length | Start sector | End sector
---------------------------------------------------------
1 | 0:00.00 | 5:32.35 | 0 | 24934
2 | 5:32.35 | 4:13.28 | 24935 | 43937
3 | 9:45.63 | 4:48.40 | 43938 | 65577
4 | 14:34.28 | 3:43.12 | 65578 | 82314
5 | 18:17.40 | 5:50.00 | 82315 | 108564
6 | 24:07.40 | 8:58.24 | 108565 | 148938
7 | 33:05.64 | 9:16.74 | 148939 | 190712
8 | 42:22.63 | 7:54.68 | 190713 | 226330
9 | 50:17.56 | 4:27.22 | 226331 | 246377
Track 1
Filename C:\! RUTRACKER\ru up\Steve Lacy Trio - The Holy la (1998) [FLAC]\01 - Shuffle Boil.wav
Pre-gap length 0:00:02.00
Peak level 90.8 %
Track quality 100.0 %
Test CRC 805DA0AE
Copy CRC 805DA0AE
Accurately ripped (confidence 1) [8328447B]
Copy OK
Track 2
Filename C:\! RUTRACKER\ru up\Steve Lacy Trio - The Holy la (1998) [FLAC]\02 - The Holy la.wav
Pre-gap length 0:00:02.10
Peak level 89.7 %
Track quality 99.9 %
Test CRC 45B891F6
Copy CRC 45B891F6
Accurately ripped (confidence 1) [61A6AC76]
Copy OK
Track 3
Filename C:\! RUTRACKER\ru up\Steve Lacy Trio - The Holy la (1998) [FLAC]\03 - Inside My Head.wav
Pre-gap length 0:00:02.61
Peak level 88.2 %
Track quality 99.9 %
Test CRC 4E7C1D57
Copy CRC 4E7C1D57
Accurately ripped (confidence 1) [81EEC19F]
Copy OK
Track 4
Filename C:\! RUTRACKER\ru up\Steve Lacy Trio - The Holy la (1998) [FLAC]\04 - Blue Jay.wav
Pre-gap length 0:00:02.01
Peak level 88.4 %
Track quality 99.9 %
Test CRC 1496EF75
Copy CRC 1496EF75
Accurately ripped (confidence 1) [57492734]
Copy OK
Track 5
Filename C:\! RUTRACKER\ru up\Steve Lacy Trio - The Holy la (1998) [FLAC]\05 - Flakes.wav
Pre-gap length 0:00:01.62
Peak level 61.7 %
Track quality 99.9 %
Test CRC 78FDD860
Copy CRC 78FDD860
Accurately ripped (confidence 1) [25766D1C]
Copy OK
Track 6
Filename C:\! RUTRACKER\ru up\Steve Lacy Trio - The Holy la (1998) [FLAC]\06 - The Wane.wav
Pre-gap length 0:00:01.56
Peak level 99.0 %
Track quality 100.0 %
Test CRC C23F6965
Copy CRC C23F6965
Accurately ripped (confidence 1) [931B9317]
Copy OK
Track 7
Filename C:\! RUTRACKER\ru up\Steve Lacy Trio - The Holy la (1998) [FLAC]\07 - Clichés.wav
Pre-gap length 0:00:01.58
Peak level 99.0 %
Track quality 100.0 %
Test CRC 7308A277
Copy CRC 7308A277
Accurately ripped (confidence 1) [69811210]
Copy OK
Track 8
Filename C:\! RUTRACKER\ru up\Steve Lacy Trio - The Holy la (1998) [FLAC]\08 - Retreat.wav
Pre-gap length 0:00:02.73
Peak level 93.4 %
Track quality 100.0 %
Test CRC 5E7B65A5
Copy CRC 5E7B65A5
Accurately ripped (confidence 1) [06073799]
Copy OK
Track 9
Filename C:\! RUTRACKER\ru up\Steve Lacy Trio - The Holy la (1998) [FLAC]\09 - The Door.wav
Pre-gap length 0:00:01.73
Peak level 78.6 %
Track quality 99.9 %
Test CRC A235F343
Copy CRC A235F343
Accurately ripped (confidence 1) [C194141E]
Copy OK
All tracks accurately ripped
No errors occurred
End of status report
 
Содержание индексной карты (.CUE)
REM GENRE "Free Jazz"
REM DATE 1998
REM DISCID 8F0CD509
REM COMMENT "ExactAudioCopy v0.99pb5"
PERFORMER "Steve Lacy Trio"
TITLE "The Holy la"
FILE "01 - Shuffle Boil.wav" WAVE
TRACK 01 AUDIO
TITLE "Shuffle Boil"
PERFORMER "Steve Lacy Trio"
INDEX 01 00:00:00
TRACK 02 AUDIO
TITLE "The Holy la"
PERFORMER "Steve Lacy Trio"
INDEX 00 05:30:27
FILE "02 - The Holy la.wav" WAVE
INDEX 01 00:00:00
TRACK 03 AUDIO
TITLE "Inside My Head"
PERFORMER "Steve Lacy Trio"
INDEX 00 04:10:57
FILE "03 - Inside My Head.wav" WAVE
INDEX 01 00:00:00
TRACK 04 AUDIO
TITLE "Blue Jay"
PERFORMER "Steve Lacy Trio"
INDEX 00 04:46:39
FILE "04 - Blue Jay.wav" WAVE
INDEX 01 00:00:00
TRACK 05 AUDIO
TITLE "Flakes"
PERFORMER "Steve Lacy Trio"
INDEX 00 03:41:40
FILE "05 - Flakes.wav" WAVE
INDEX 01 00:00:00
TRACK 06 AUDIO
TITLE "The Wane"
PERFORMER "Steve Lacy Trio"
INDEX 00 05:48:33
FILE "06 - The Wane.wav" WAVE
INDEX 01 00:00:00
TRACK 07 AUDIO
TITLE "Clichés"
PERFORMER "Steve Lacy Trio"
INDEX 00 08:56:55
FILE "07 - Clichés.wav" WAVE
INDEX 01 00:00:00
TRACK 08 AUDIO
TITLE "Retreat"
PERFORMER "Steve Lacy Trio"
INDEX 00 09:14:19
FILE "08 - Retreat.wav" WAVE
INDEX 01 00:00:00
TRACK 09 AUDIO
TITLE "The Door"
PERFORMER "Steve Lacy Trio"
INDEX 00 07:53:13
FILE "09 - The Door.wav" WAVE
INDEX 01 00:00:00
Доп. информация:
Recorded on January 3 & 4, 1998 at Gimmick Studio, Yerres, France
Additional recording on Ocober 26, 2001 at Juno Studio, Yerres, France
First release: 2003 Sunnyside SSC 1120
 
Об альбоме (сборнике)
This fine trio CD takes its name from something held sacred by musicians: "la," the pitch to which all instruments are almost always tuned. During the course of these nine tracks, soprano saxophonist Steve Lacy and his associates also prove that they can do just anything they want with any variations of "la" and the other degrees of the scale most famously celebrated by Rodgers and Hammerstein in the song "Do-Re-Mi."
During a career that stretches back more than 50 years, Lacy no doubt played many of Richard Rodgers' tunes, but as someone who early on helped define so-called free jazz, for years his sonic references have long gone past common rhythm and show tunes. Indications of this on The Holy la includes Robert Creeley's poetry, Mark Rothko's paintings, African and reggae inflections, plus the music of Alban Berg and, of course, Thelonious Monk .
A Vivid proponent of Monk's music long before it was fashionable, Lacy guides his trio here through a characteristically jaunty version of "Shuffle Boil," as it often does in live shows. Like Monk's quartet aggregations, this version of Lacy's band is almost perfectly aligned—both French bassist Jean-Jacques Avenel and American drummer John Betsch have played with the saxophonist since the mid-1980s.
Also present on two tracks is Lacy's wife, vocalist Irene Aebi. Although often treated by Lacy's fans as a Yoko Ono to his John Lennon , she's more of a distinctive stylist and her voice meshes with Lacy's horn much appropriately than Ono's voice ever did with her husband's. Avenel, whose steady timekeeping is featured throughout, acquits himself admirably however, playing sanza or thumb piano and mixing it up with Betsch's exotic, African influenced percussion on "Clichés," a Lacy composition written for a deceased Guinean saxophonist.
More appropriately, Avenel advances the line and shows off his double stopping skill and pizzicato slides on "Blue Jay," a portrait of Lacy's friend of the 1960s, French bassist Jean-François Jenny-Clark. Consummately modern, Betsch is never showy or in the way, always creating what patterns are needed at the appropriate times and even making something musical out of simple knocking and rolling on "The Door."
What's left to say about Lacy's playing after all these years? The man who gave the soprano saxophone a role in modern jazz, has grown along with appreciation for his instrument and shaped the sound to his requirements - and to others that were probably never imagined until he took up the horn. Familiar with every acre of its real estate from its mellow mid-range to its screeching top notes, his mastery is such that it appears effortless. While he continues to experiment with different sounds and timbres, as he shows on the pieces here, his music is always embedded in the lodestone that continues to define jazz and improvised music.
 
Состав
Steve Lacy - soprano sax
Jean-Jacques Avenel - bass, sanza (on 7)
John Betch - drums
Irene Aebi - vocals (on 3 & 8)
Any questions -> support@pro-jazz.com. По всем вопросам пишите -> support@pro-jazz.com
08:20
182
Нет комментариев. Ваш будет первым!