Вы используете незарегистрированную версию компонента "Вкладки"!

Поиск

(Free Jazz, Space-Age) Anderskov Accident (Jacob Anderskov) - Unity Of Action - 2005, FLAC (image+.cue), lossless

(Free Jazz, Space-Age) Anderskov Accident (Jacob Anderskov) - Unity Of Action - 2005, FLAC (image+.cue), lossless
Треклист:
Anderskov Accident / Unity Of Action
Жанр: Free Jazz, Space-Age
Страна-производитель диска: Denmark
Год издания диска: 2005
Издатель (лейбл): ILK Music
Номер по каталогу: ILK106CD
Аудиокодек: FLAC (*.flac)
Тип рипа: image+.cue
Битрейт аудио: lossless
Продолжительность: 58:16
Источник (релизер): cd
Наличие сканов в содержимом раздачи: нет
Треклист:
1 Den Onde Cirkel 12:20
2 The Sick Man 8:30
3 What Roots 9:14
4 Euler On The Rocks 10:09
5 Fibo Ludo 8:28
6 Handy Week 5:02
7 UNK 4:31
 
Лог создания рипа
Exact Audio Copy V1.0 beta 2 from 29. April 2011
EAC extraction logfile from 9. December 2011, 14:20
Anderskov Accident / Unity Of Action
Used drive : Optiarc DVD RW AD-7170A Adapter: 0 ID: 0
Read mode : Secure
Utilize accurate stream : Yes
Defeat audio cache : Yes
Make use of C2 pointers : No
Read offset correction : 48
Overread into Lead-In and Lead-Out : No
Fill up missing offset samples with silence : Yes
Delete leading and trailing silent blocks : No
Null samples used in CRC calculations : Yes
Used interface : Native Win32 interface for Win NT & 2000
Used output format : User Defined Encoder
Selected bitrate : 320 kBit/s
Quality : High
Add ID3 tag : No
Command line compressor : C:\Program Files\Exact Audio Copy\Flac\flac.exe
Additional command line options : -V -8 -T "Date=%year%" -T "Genre=%genre%" %source%
TOC of the extracted CD
Track | Start | Length | Start sector | End sector
---------------------------------------------------------
1 | 0:00.00 | 12:20.30 | 0 | 55529
2 | 12:20.30 | 8:30.33 | 55530 | 93812
3 | 20:50.63 | 9:14.02 | 93813 | 135364
4 | 30:04.65 | 10:09.60 | 135365 | 181099
5 | 40:14.50 | 8:28.20 | 181100 | 219219
6 | 48:42.70 | 5:02.51 | 219220 | 241920
7 | 53:45.46 | 4:31.12 | 241921 | 262257
Range status and errors
Selected range
Filename C:\EAC\Downloads\Anderskov Accident - Unity Of Action.wav
Peak level 100.0 %
Extraction speed 2.1 X
Range quality 100.0 %
Test CRC 90D4A838
Copy CRC 90D4A838
Copy OK
No errors occurred
AccurateRip summary
Track 1 not present in database
Track 2 not present in database
Track 3 not present in database
Track 4 not present in database
Track 5 not present in database
Track 6 not present in database
Track 7 not present in database
None of the tracks are present in the AccurateRip database
End of status report
==== Log checksum A94CABA42839838DBCA5712FF13CA903C99221B974DDC49F452422EB94FF7FE9 ====
 
Содержание индексной карты (.CUE)
REM GENRE Jazz
REM DATE 2005
REM DISCID 540DA807
REM COMMENT "ExactAudioCopy v1.0b2"
PERFORMER "Anderskov Accident"
TITLE "Unity Of Action"
FILE "Anderskov Accident - Unity Of Action.flac" WAVE
TRACK 01 AUDIO
TITLE "Den Onde Cirkel"
PERFORMER "Anderskov Accident"
FLAGS DCP
INDEX 01 00:00:00
TRACK 02 AUDIO
TITLE "The Sick Man"
PERFORMER "Anderskov Accident"
FLAGS DCP
INDEX 00 12:18:30
INDEX 01 12:20:30
TRACK 03 AUDIO
TITLE "What Roots"
PERFORMER "Anderskov Accident"
FLAGS DCP
INDEX 00 20:48:02
INDEX 01 20:50:63
TRACK 04 AUDIO
TITLE "Euler on the Rocks"
PERFORMER "Anderskov Accident"
FLAGS DCP
INDEX 00 30:02:10
INDEX 01 30:04:65
TRACK 05 AUDIO
TITLE "Fibo Ludo"
PERFORMER "Anderskov Accident"
FLAGS DCP
INDEX 00 40:11:62
INDEX 01 40:14:50
TRACK 06 AUDIO
TITLE "Handy Week"
PERFORMER "Anderskov Accident"
FLAGS DCP
INDEX 00 48:41:07
INDEX 01 48:42:70
TRACK 07 AUDIO
TITLE "UNK"
PERFORMER "Anderskov Accident"
FLAGS DCP
INDEX 00 53:37:63
INDEX 01 53:45:46
Доп. информация: Recorded September 23rd & 24th 2004 at Sweet Silence Studio, Copenhagen. Mixed and mastered at Karmacrew, Copenhagen.
 
Состав
Bass – Jeppe Skovbakke
Clarinet, Clarinet [Bass], Saxophone [Alto, Tenor] – Anders Banke
Drums – Rune Kielsgaard
Electric Piano [Rhodes] – Jacob Anderskov
Saxophone [Alto], Clarinet – Laura Toxvaerd (tracks: 1, 2, 5)
Saxophone [Tenor] – Ned Ferm
Trombone – Peter Dahlgren
Trumpet, Cornet – Kasper Tranberg
Any questions -> support@pro-jazz.com. По всем вопросам пишите -> support@pro-jazz.com
19:22
167
Нет комментариев. Ваш будет первым!