Вы используете незарегистрированную версию компонента "Вкладки"!

Поиск

(Free Jazz) Sound In Action Trio (Ken Vandermark, Robert Barry, Tim Daisy) - Gate - 2006, FLAC (tracks+.cue), lossless

(Free Jazz) Sound In Action Trio (Ken Vandermark, Robert Barry, Tim Daisy) - Gate - 2006, FLAC (tracks+.cue), lossless
Треклист:
Sound In Action Trio / Gate
Жанр: Free Jazz
Страна-производитель диска: USA
Год издания диска: 2006
Издатель (лейбл): Atavistic
Номер по каталогу: ALP160CD
Страна: USA
Аудиокодек: FLAC (*.flac)
Тип рипа: tracks+.cue
Битрейт аудио: lossless
Продолжительность: 1:09:08
Источник (релизер): CD
Наличие сканов в содержимом раздачи: да
Треклист:
01 - Horizontal Fall
02 - Prophet
03 - Red Cross
04 - Medium Cool
05 - Enlightenment
06 - Togo
07 - Side Car
08 - Slate
09 - One Down, One Up
10 - Love Cry
11 - House Party Starting
 
Лог создания рипа
Exact Audio Copy V1.0 beta 2 from 29. April 2011
EAC extraction logfile from 22. September 2011, 10:31
Sound In Action Trio / Gate
Used drive : Optiarc DVD RW AD-7240S Adapter: 2 ID: 0
Read mode : Secure
Utilize accurate stream : Yes
Defeat audio cache : Yes
Make use of C2 pointers : No
Read offset correction : 48
Overread into Lead-In and Lead-Out : No
Fill up missing offset samples with silence : Yes
Delete leading and trailing silent blocks : No
Null samples used in CRC calculations : Yes
Used interface : Native Win32 interface for Win NT & 2000
Gap handling : Appended to previous track
Used output format : User Defined Encoder
Selected bitrate : 768 kBit/s
Quality : High
Add ID3 tag : No
Command line compressor : C:\Program Files\Exact Audio Copy\FLAC\FLAC.EXE
Additional command line options : -6 -V -T "ARTIST=%artist%" -T "TITLE=%title%" -T "ALBUM=%albumtitle%" -T "DATE=%year%" -T "TRACKNUMBER=%tracknr%" -T "GENRE=%genre%" -T "COMMENT=%comment%" -T "BAND=%albuminterpret%" -T "COMPOSER=%composer%" %haslyrics%--ta
TOC of the extracted CD
Track | Start | Length | Start sector | End sector
---------------------------------------------------------
1 | 0:00.00 | 4:37.63 | 0 | 20837
2 | 4:37.63 | 5:56.25 | 20838 | 47562
3 | 10:34.13 | 7:42.20 | 47563 | 82232
4 | 18:16.33 | 6:36.73 | 82233 | 112005
5 | 24:53.31 | 5:45.21 | 112006 | 137901
6 | 30:38.52 | 7:58.05 | 137902 | 173756
7 | 38:36.57 | 4:53.19 | 173757 | 195750
8 | 43:30.01 | 6:53.12 | 195751 | 226737
9 | 50:23.13 | 6:38.44 | 226738 | 256631
10 | 57:01.57 | 6:25.55 | 256632 | 285561
11 | 63:27.37 | 5:41.21 | 285562 | 311157
Track 1
Filename C:\Sound In Action Trio - Gate (2006)\01 Horizontal Fall (for Han Bennink).wav
Pre-gap length 0:00:02.00
Peak level 98.7 %
Extraction speed 1.9 X
Track quality 99.9 %
Test CRC 8930C960
Copy CRC 8930C960
Accurately ripped (confidence 1) [6209E411] (AR v1)
Copy OK
Track 2
Filename C:\Sound In Action Trio - Gate (2006)\02 The Prophet.wav
Pre-gap length 0:00:03.48
Peak level 94.7 %
Extraction speed 2.8 X
Track quality 100.0 %
Test CRC BE34BC5F
Copy CRC BE34BC5F
Accurately ripped (confidence 1) [1A8614EE] (AR v1)
Copy OK
Track 3
Filename C:\Sound In Action Trio - Gate (2006)\03 Red Cross (for Elvin Jones).wav
Pre-gap length 0:00:02.56
Peak level 98.1 %
Extraction speed 3.2 X
Track quality 100.0 %
Test CRC 48E602DF
Copy CRC 48E602DF
Accurately ripped (confidence 1) [37C0494F] (AR v1)
Copy OK
Track 4
Filename C:\Sound In Action Trio - Gate (2006)\04 Medium Cool (for Paul Lovens).wav
Pre-gap length 0:00:03.25
Peak level 75.9 %
Extraction speed 3.5 X
Track quality 100.0 %
Test CRC 1B8D9B60
Copy CRC 1B8D9B60
Accurately ripped (confidence 1) [C4C6181B] (AR v1)
Copy OK
Track 5
Filename C:\Sound In Action Trio - Gate (2006)\05 Enlightenment.wav
Pre-gap length 0:00:03.40
Peak level 98.4 %
Extraction speed 3.5 X
Track quality 99.9 %
Test CRC 3CE0624E
Copy CRC 3CE0624E
Accurately ripped (confidence 1) [ACB0B733] (AR v1)
Copy OK
Track 6
Filename C:\Sound In Action Trio - Gate (2006)\06 Togo.wav
Pre-gap length 0:00:04.01
Peak level 97.4 %
Extraction speed 3.9 X
Track quality 99.9 %
Test CRC 081412D6
Copy CRC 081412D6
Accurately ripped (confidence 1) [A0DFDB04] (AR v1)
Copy OK
Track 7
Filename C:\Sound In Action Trio - Gate (2006)\07 Side Car (for Tony Williams).wav
Pre-gap length 0:00:03.09
Peak level 95.3 %
Extraction speed 4.2 X
Track quality 100.0 %
Test CRC 8BF30C66
Copy CRC 8BF30C66
Accurately ripped (confidence 1) [51F1F85F] (AR v1)
Copy OK
Track 8
Filename C:\Sound In Action Trio - Gate (2006)\08 Slate (for Paul Lytton).wav
Pre-gap length 0:00:03.42
Peak level 72.6 %
Extraction speed 4.6 X
Track quality 100.0 %
Test CRC FD1804E8
Copy CRC FD1804E8
Accurately ripped (confidence 1) [3C8EF8CC] (AR v1)
Copy OK
Track 9
Filename C:\Sound In Action Trio - Gate (2006)\09 One Down, One Up.wav
Pre-gap length 0:00:03.64
Peak level 98.2 %
Extraction speed 4.8 X
Track quality 100.0 %
Test CRC 5A11581E
Copy CRC 5A11581E
Accurately ripped (confidence 1) [98806665] (AR v1)
Copy OK
Track 10
Filename C:\Sound In Action Trio - Gate (2006)\10 Love Cry.wav
Pre-gap length 0:00:03.36
Peak level 98.2 %
Extraction speed 4.6 X
Track quality 99.9 %
Test CRC CC2C1853
Copy CRC CC2C1853
Accurately ripped (confidence 1) [63F3EC73] (AR v1)
Copy OK
Track 11
Filename C:\Sound In Action Trio - Gate (2006)\11 House Party Starting.wav
Pre-gap length 0:00:03.64
Peak level 95.4 %
Extraction speed 4.7 X
Track quality 99.9 %
Test CRC 90D487CE
Copy CRC 90D487CE
Accurately ripped (confidence 1) [46FA6019] (AR v1)
Copy OK
All tracks accurately ripped
No errors occurred
End of status report
==== Log checksum 3A0CB483B0D80B53FD659726D9E390C1E062089E494DAC4E8DB0FDB1DCD8B988 ====
 
Содержание индексной карты (.CUE)
REM GENRE Jazz
REM DATE 2006
REM DISCID 9810340B
REM COMMENT "ExactAudioCopy v1.0b2"
PERFORMER "Sound In Action Trio"
TITLE "Gate"
FILE "01 Horizontal Fall (for Han Bennink).wav" WAVE
TRACK 01 AUDIO
TITLE "Horizontal Fall (for Han Bennink)"
PERFORMER "Sound In Action Trio"
INDEX 01 00:00:00
TRACK 02 AUDIO
TITLE "The Prophet"
PERFORMER "Sound In Action Trio"
INDEX 00 04:34:15
FILE "02 The Prophet.wav" WAVE
INDEX 01 00:00:00
TRACK 03 AUDIO
TITLE "Red Cross (for Elvin Jones)"
PERFORMER "Sound In Action Trio"
INDEX 00 05:53:44
FILE "03 Red Cross (for Elvin Jones).wav" WAVE
INDEX 01 00:00:00
TRACK 04 AUDIO
TITLE "Medium Cool (for Paul Lovens)"
PERFORMER "Sound In Action Trio"
INDEX 00 07:38:70
FILE "04 Medium Cool (for Paul Lovens).wav" WAVE
INDEX 01 00:00:00
TRACK 05 AUDIO
TITLE "Enlightenment"
PERFORMER "Sound In Action Trio"
INDEX 00 06:33:33
FILE "05 Enlightenment.wav" WAVE
INDEX 01 00:00:00
TRACK 06 AUDIO
TITLE "Togo"
PERFORMER "Sound In Action Trio"
INDEX 00 05:41:20
FILE "06 Togo.wav" WAVE
INDEX 01 00:00:00
TRACK 07 AUDIO
TITLE "Side Car (for Tony Williams)"
PERFORMER "Sound In Action Trio"
INDEX 00 07:54:71
FILE "07 Side Car (for Tony Williams).wav" WAVE
INDEX 01 00:00:00
TRACK 08 AUDIO
TITLE "Slate (for Paul Lytton)"
PERFORMER "Sound In Action Trio"
INDEX 00 04:49:52
FILE "08 Slate (for Paul Lytton).wav" WAVE
INDEX 01 00:00:00
TRACK 09 AUDIO
TITLE "One Down, One Up"
PERFORMER "Sound In Action Trio"
INDEX 00 06:49:23
FILE "09 One Down, One Up.wav" WAVE
INDEX 01 00:00:00
TRACK 10 AUDIO
TITLE "Love Cry"
PERFORMER "Sound In Action Trio"
INDEX 00 06:35:08
FILE "10 Love Cry.wav" WAVE
INDEX 01 00:00:00
TRACK 11 AUDIO
TITLE "House Party Starting"
PERFORMER "Sound In Action Trio"
INDEX 00 06:21:66
FILE "11 House Party Starting.wav" WAVE
INDEX 01 00:00:00
 
Доп. информация
Recording information: AirWave Recording Studios, Chicago, IL (07/29/2003-07/30/2003).
The Wire (p.70) - "[I]t's the repertory material that catches the ear: brilliant versions of Eric Dolphy's 'The Prophet', Ayler's seldom covered 'Love Cry' and Sun Ra's 'Enlightenment', among others."
JazzTimes (p.134) - "Vandermark seems extremely comfortable in this particular setting, smoothly shifting from brawny tenor barking to contemplative clarinet musings."
 
Об исполнителе (группе)
The Chicago reed player Ken Vandermark and two drummers, Tim Daisy and the Sun Ra Arkestra's Robert Barry, take a set of modern jazz compositions by artists like Eric Dolphy, John Coltrane, and Albert Ayler as their improvisational starting point in this remarkable set. Using a surprisingly broad range of tonal colors, the trio's sonic explorations are often unusually sensitive, and frequently thrilling. Robert Barry (Legendary Core Member Of Sun Ra's Arkestra Circa 1950S/60S), Ken Vandermark (V5/ Spaceways Inc. / B61/ (((Powerhouse Sound))), And Tim Daisy (V5/ Rempis Percussion Trio/ Triage) Dig Deep And Find The Spirit Willing- And No Resistance While Conjuring Their Second Studio Effort As Sia.
Superb Homages And Collages To And By Albert Ayler, John Coltrane, Eric Dolphy, Dotson/Ra, Ed Blackwell- And Herbie Nichols' Sublime "House Party Starting" Complete & Compliment Five Sia Originals On Gate... So Dig The Double-Drum Vs. Reed Groove Now.
 
Об альбоме (сборнике)
Gate is the second release by the Sound In Action Trio, yet another of multi-instrumentalist and composer Ken Vandermark's many ensembles. Unique among his many intriguing groups, the lineup consists solely of Vandermark and two drummers, each from a very different background. Tim Daisy, the resident drummer in the Vandermark 5, shares duties with drummer Frank Rosaly in saxophonist Dave Rempis' Percussion Quartet. As a seminal member of Sun Ra's Arkestra, Robert Barry has a decade of experience collaborating with multiple percussionists and navigating dense polyrhythms.
Much like this group's debut, Design in Time (Delmark, 1999), Gate features a program of originals and covers. Mixing in a selection of classic post-war standards drawn from the songbooks of Albert Ayler, Ed Blackwell, John Coltrane, Eric Dolphy, Herbie Nichols and Sun Ra, Vandermark balances a set dominated by driving, euphoric workouts with a scattered selection of more restrained fare.
Two drummers playing full kits in tandem is hardly revolutionary, but the trio's lack of either bass or harmony instrument does pose unique challenges. Fortunately, both percussionists have ample experience in similar settings, making use of attentive listening skills, dynamic sensitivity and immaculate timing.
To suggest melodic development, Daisy and Barry conspire to maintain bass pulses and tonal cues. They play with restraint and subtlety on "Medium Cool (for Paul Lovens)" and "Slate (for Paul Lytton)," which spotlight Vandermark's placid clarinet musings. Conversely, the two drummers drive Ed Blackwell's "Togo" along like an eight-limbed beast, furiously undulating while Vandermark stutters out staccato tenor riffs, pneumatically cycling through endless thematic variations.
A veteran performer, Vandermark is no stranger to ensembles devoid of traditional harmonic support. Roaming unfettered through these pieces, he veers from mellifluous lyricism to passionate exuberance. While he makes use of a plethora of horns, he concentrates on tenor and baritone saxophone for the album's many boisterous pieces, reserving his clarinet and bass clarinet for a nuanced approach on the few quiet ones.
Vandermark takes his muscular, brawny baritone on a resplendent run through Sun Ra's "Enlightenment." His impassioned tenor workout on Coltrane's "One Up, One Down" sidesteps comparisons to the master by avoiding clichés, while Daisy and Barry whip up a maelstrom of rhythmic energy.
Despite its unconventional makeup, the Sound In Action Trio demonstrates inventive ways to expand the possibilities of small group improvisation. These players convincingly reimagine standards dependent on solid harmonic development and lyrical exploration with a rollicking polyrhythmic frenzy and dedication to form that never abandons structure. Gate is a testament to Vandermark, Daisy and Barry's improvisational acumen.
 
Состав
Robert Barry - drums
Tim Daisy - drums
Ken Vandermark - reeds
По всем вопросам пишите личное сообщение пользователю M0p94ok.
17:02
181
Нет комментариев. Ваш будет первым!