Вы используете незарегистрированную версию компонента "Вкладки"!

Поиск

(Free Jazz, Soul Note) George Adams - Dannie Richmond - Hand to Hand - 1980, FLAC (tracks+.cue), lossless

(Free Jazz, Soul Note) George Adams - Dannie Richmond - Hand to Hand - 1980, FLAC (tracks+.cue), lossless
Издатель (лейбл):
Треклист:
George Adams - Dannie Richmond / Hand to Hand
Жанр: Free Jazz, Soul Note
Страна-производитель диска: Italy
Год издания: 1980
Издатель (лейбл): Soul Note
Номер по каталогу: 121007-2
Аудиокодек: FLAC (*.flac)
Тип рипа: tracks+.cue
Битрейт аудио: lossless
Продолжительность: 39:48
Источник (релизер): Max Monteiro
Наличие сканов в содержимом раздачи: нет
Треклист:
1. The Cloocker (Hugh Lawson) 9:14
2. Yamani’s Passion (George Adams) 10:59
3. For Dee J. (Dannie Richmoond) 8:13
4. Joobubie (Hugh Lawson) 11:23
Recorded February 13 & 14, 1980 at Barigozzi Studios, Milano.
George Adams – Tenor Saxophone, Flute
Jimmy Knepper – Trombone
Hugh Lawson – Piano
Mike Richmond – Bass
Dannie Richmond – Drums
 
Лог создания рипа
Exact Audio Copy V1.0 beta 3 from 29. August 2011
EAC extraction logfile from 6. July 2013, 23:05
George Adams - Dannie Richmond / Hand to Hand
Used drive : SlimtypeeNAU508 5 Adapter: 1 ID: 0
Read mode : Secure
Utilize accurate stream : Yes
Defeat audio cache : Yes
Make use of C2 pointers : No
Read offset correction : 6
Overread into Lead-In and Lead-Out : No
Fill up missing offset samples with silence : Yes
Delete leading and trailing silent blocks : No
Null samples used in CRC calculations : Yes
Used interface : Native Win32 interface for Win NT & 2000
Gap handling : Appended to previous track
Used output format : User Defined Encoder
Selected bitrate : 768 kBit/s
Quality : High
Add ID3 tag : No
Command line compressor : C:\Program Files (x86)\Exact Audio Copy\Flac\flac.exe
Additional command line options : -8 -V -T "ARTIST=%artist%" -T "TITLE=%title%" -T "ALBUM=%albumtitle%" -T "DATE=%year%" -T "TRACKNUMBER=%tracknr%" -T "GENRE=%genre%" -T "PERFORMER=%albuminterpret%" -T "COMPOSER=%composer%" %haslyrics%--tag-from-file=LYRICS="%lyricsfile%"%haslyrics% -T "ALBUMARTIST=%albumartist%" -T "DISCNUMBER=%cdnumber%" -T "TOTALDISCS=%totalcds%" -T "TOTALTRACKS=%numtracks%" -T "COMMENT=%comment%" %source% -o %dest%
TOC of the extracted CD
Track | Start | Length | Start sector | End sector
---------------------------------------------------------
1 | 0:00.33 | 9:14.32 | 33 | 41614
2 | 9:14.65 | 10:58.60 | 41615 | 91024
3 | 20:13.50 | 8:12.43 | 91025 | 127967
4 | 28:26.18 | 11:22.45 | 127968 | 179162
Track 1
Filename C:\EAC rips\01 - The Cloocker.wav
Pre-gap length 0:00:02.33
Peak level 79.3 %
Extraction speed 1.1 X
Track quality 99.9 %
Test CRC 0A6A59E6
Copy CRC 0A6A59E6
Track not present in AccurateRip database
Copy OK
Track 2
Filename C:\EAC rips\02 - Yamani's Passion.wav
Pre-gap length 0:00:03.55
Peak level 75.4 %
Extraction speed 1.5 X
Track quality 100.0 %
Test CRC E1CB45B4
Copy CRC E1CB45B4
Track not present in AccurateRip database
Copy OK
Track 3
Filename C:\EAC rips\03 - For Dee J..wav
Pre-gap length 0:00:05.10
Peak level 75.2 %
Extraction speed 1.7 X
Track quality 100.0 %
Test CRC D48F19B4
Copy CRC D48F19B4
Track not present in AccurateRip database
Copy OK
Track 4
Filename C:\EAC rips\04 - Joobubie.wav
Pre-gap length 0:00:03.38
Peak level 72.2 %
Extraction speed 1.8 X
Track quality 99.9 %
Test CRC B03F3300
Copy CRC B03F3300
Track not present in AccurateRip database
Copy OK
None of the tracks are present in the AccurateRip database
No errors occurred
End of status report
---- CUETools DB Plugin V2.1.4
[CTDB TOCID: AmRzHtf2lO3yGFy6hDcFtc4Rpxs-] disk not present in database
Submit result: AmRzHtf2lO3yGFy6hDcFtc4Rpxs- has been uploaded
==== Log checksum 9B8FFB43105953097E8E6AEE1089461E5EF5C14C674A819D3F1A1518AF71C3D2 ====
 
Содержание индексной карты (.CUE)
REM GENRE Jazz
REM DATE 1980
REM DISCID 2B095404
REM COMMENT "ExactAudioCopy v1.0b3"
PERFORMER "George Adams - Dannie Richmond"
TITLE "Hand to Hand"
FILE "01 - The Cloocker.wav" WAVE
TRACK 01 AUDIO
TITLE "The Cloocker"
PERFORMER "George Adams - Dannie Richmond"
PREGAP 00:00:33
INDEX 01 00:00:00
TRACK 02 AUDIO
TITLE "Yamani's Passion"
PERFORMER "George Adams - Dannie Richmond"
INDEX 00 09:10:52
FILE "02 - Yamani's Passion.wav" WAVE
INDEX 01 00:00:00
TRACK 03 AUDIO
TITLE "For Dee J."
PERFORMER "George Adams - Dannie Richmond"
INDEX 00 10:53:50
FILE "03 - For Dee J..wav" WAVE
INDEX 01 00:00:00
TRACK 04 AUDIO
TITLE "Joobubie"
PERFORMER "George Adams - Dannie Richmond"
INDEX 00 08:09:05
FILE "04 - Joobubie.wav" WAVE
INDEX 01 00:00:00
Any questions -> support@pro-jazz.com. По всем вопросам пишите -> support@pro-jazz.com
15:53
317
Нет комментариев. Ваш будет первым!