Вы используете незарегистрированную версию компонента "Вкладки"!

Поиск

(Free Jazz, Soul Note) Ellery Eskelin (with Marc Ribot and Kenny Wollesen) - The Sun Died - 1996, FLAC (tracks+.cue), lossless

(Free Jazz, Soul Note) Ellery Eskelin (with Marc Ribot and Kenny Wollesen) - The Sun Died - 1996, FLAC (tracks+.cue), lossless
Издатель (лейбл):
Треклист:
Ellery Eskelin / The Sun Died
Жанр: Free Jazz, Soul Note
Страна-производитель диска: Italy
Год издания: 1996
Издатель (лейбл): Soul Note
Номер по каталогу: 121282-2
Аудиокодек: FLAC (*.flac)
Тип рипа: tracks+.cue
Битрейт аудио: lossless
Продолжительность: 52:13
Источник (релизер): Max Monteiro
Наличие сканов в содержимом раздачи: нет
Треклист:
01. Twistin’ the Jug (Gene Ammons) 5:08
02. The People’s Choice (Harold Ousley) 6:40
03. Canadian Sunset (Heywood / Gimbel) 5:15
04. Out of It (Harold Vick) 2:34
05. Seed Shack (Gene Ammons) 7:37
06. Ca’ Purange (Jungle Soul) (Mussapere) 6:53
07. The Sun Died (Delanoe / Giraud / Gregory / Charles) 6:41
08. Jivin’ Around (Gene Ammons) 3:31
09. Precious Memories (Public Domain) 4:29
10. The Light (Public Domain) 3:26
Recorded on January 3 and 4, 1996 at East Side Sound, NYC.
Ellery Eskelin – Tenor Saxophone
Marc Ribot – Guitar
Kenny Wollesen – Drums
 
Лог создания рипа
Exact Audio Copy V1.0 beta 3 from 29. August 2011
EAC extraction logfile from 26. June 2013, 22:26
Ellery Eskelin / The Sun Died
Used drive : SlimtypeeNAU508 5 Adapter: 1 ID: 0
Read mode : Secure
Utilize accurate stream : Yes
Defeat audio cache : Yes
Make use of C2 pointers : No
Read offset correction : 6
Overread into Lead-In and Lead-Out : No
Fill up missing offset samples with silence : Yes
Delete leading and trailing silent blocks : No
Null samples used in CRC calculations : Yes
Used interface : Native Win32 interface for Win NT & 2000
Gap handling : Appended to previous track
Used output format : User Defined Encoder
Selected bitrate : 768 kBit/s
Quality : High
Add ID3 tag : No
Command line compressor : C:\Program Files (x86)\Exact Audio Copy\Flac\flac.exe
Additional command line options : -8 -V -T "ARTIST=%artist%" -T "TITLE=%title%" -T "ALBUM=%albumtitle%" -T "DATE=%year%" -T "TRACKNUMBER=%tracknr%" -T "GENRE=%genre%" -T "PERFORMER=%albuminterpret%" -T "COMPOSER=%composer%" %haslyrics%--tag-from-file=LYRICS="%lyricsfile%"%haslyrics% -T "ALBUMARTIST=%albumartist%" -T "DISCNUMBER=%cdnumber%" -T "TOTALDISCS=%totalcds%" -T "TOTALTRACKS=%numtracks%" -T "COMMENT=%comment%" %source% -o %dest%
TOC of the extracted CD
Track | Start | Length | Start sector | End sector
---------------------------------------------------------
1 | 0:00.33 | 5:07.50 | 33 | 23107
2 | 5:08.08 | 6:39.50 | 23108 | 53082
3 | 11:47.58 | 5:14.50 | 53083 | 76682
4 | 17:02.33 | 2:34.25 | 76683 | 88257
5 | 19:36.58 | 7:36.62 | 88258 | 122519
6 | 27:13.45 | 6:52.63 | 122520 | 153482
7 | 34:06.33 | 6:40.50 | 153483 | 183532
8 | 40:47.08 | 3:31.25 | 183533 | 199382
9 | 44:18.33 | 4:29.25 | 199383 | 219582
10 | 48:47.58 | 3:25.50 | 219583 | 235007
Track 1
Filename C:\EAC rips\01 - Twistin' the Jug.wav
Pre-gap length 0:00:02.33
Peak level 84.1 %
Extraction speed 1.1 X
Track quality 100.0 %
Test CRC BB26FDF6
Copy CRC BB26FDF6
Accurately ripped (confidence 4) [48036A01] (AR v1)
Copy OK
Track 2
Filename C:\EAC rips\02 - The People's Choice.wav
Peak level 77.0 %
Extraction speed 1.3 X
Track quality 100.0 %
Test CRC 0B46C007
Copy CRC 0B46C007
Accurately ripped (confidence 4) [900DC5F1] (AR v1)
Copy OK
Track 3
Filename C:\EAC rips\03 - Canadian Sunset.wav
Peak level 75.2 %
Extraction speed 1.4 X
Track quality 100.0 %
Test CRC 56C620DA
Copy CRC 56C620DA
Accurately ripped (confidence 4) [24907622] (AR v1)
Copy OK
Track 4
Filename C:\EAC rips\04 - Out of It.wav
Peak level 77.1 %
Extraction speed 1.1 X
Track quality 99.9 %
Test CRC 28B8626D
Copy CRC 28B8626D
Accurately ripped (confidence 4) [5CF97F94] (AR v1)
Copy OK
Track 5
Filename C:\EAC rips\05 - Seed Shack.wav
Peak level 76.1 %
Extraction speed 1.6 X
Track quality 99.9 %
Test CRC 82C6232A
Copy CRC 82C6232A
Accurately ripped (confidence 4) [497DEB97] (AR v1)
Copy OK
Track 6
Filename C:\EAC rips\06 - Ca' Purange (Jungle Soul).wav
Peak level 76.7 %
Extraction speed 1.8 X
Track quality 100.0 %
Test CRC 1B2D63FE
Copy CRC 1B2D63FE
Accurately ripped (confidence 4) [FED2A9E8] (AR v1)
Copy OK
Track 7
Filename C:\EAC rips\07 - The Sun Died.wav
Peak level 75.2 %
Extraction speed 2.0 X
Track quality 100.0 %
Test CRC C8FBA684
Copy CRC C8FBA684
Accurately ripped (confidence 4) [3F1C3E6F] (AR v1)
Copy OK
Track 8
Filename C:\EAC rips\08 - Jivin' Around.wav
Peak level 75.0 %
Extraction speed 1.9 X
Track quality 100.0 %
Test CRC EC2B6D94
Copy CRC EC2B6D94
Accurately ripped (confidence 4) [F27C6DDE] (AR v1)
Copy OK
Track 9
Filename C:\EAC rips\09 - Precious Memories.wav
Peak level 81.8 %
Extraction speed 2.0 X
Track quality 100.0 %
Test CRC B916953D
Copy CRC B916953D
Accurately ripped (confidence 4) [4024CBC3] (AR v1)
Copy OK
Track 10
Filename C:\EAC rips\10 - The Light.wav
Peak level 80.6 %
Extraction speed 2.0 X
Track quality 100.0 %
Test CRC 58AA5544
Copy CRC 58AA5544
Accurately ripped (confidence 4) [A012F9F3] (AR v1)
Copy OK
All tracks accurately ripped
No errors occurred
End of status report
---- CUETools DB Plugin V2.1.4
[CTDB TOCID: BIrb92JuzpoXi7n.cuKtdLPSNz0-] disk not present in database
Submit result: BIrb92JuzpoXi7n.cuKtdLPSNz0- has been uploaded
==== Log checksum 7AEEC91895BE2011028D9DC7346DAD94CF908827C2107506767AE560F81FA33E ====
 
Содержание индексной карты (.CUE)
REM GENRE Jazz
REM DATE 1996
REM DISCID 820C3D0A
REM COMMENT "ExactAudioCopy v1.0b3"
PERFORMER "Ellery Eskelin"
TITLE "The Sun Died"
FILE "01 - Twistin' the Jug.wav" WAVE
TRACK 01 AUDIO
TITLE "Twistin' the Jug"
PERFORMER "Ellery Eskelin"
PREGAP 00:00:33
INDEX 01 00:00:00
FILE "02 - The People's Choice.wav" WAVE
TRACK 02 AUDIO
TITLE "The People's Choice"
PERFORMER "Ellery Eskelin"
INDEX 01 00:00:00
FILE "03 - Canadian Sunset.wav" WAVE
TRACK 03 AUDIO
TITLE "Canadian Sunset"
PERFORMER "Ellery Eskelin"
INDEX 01 00:00:00
FILE "04 - Out of It.wav" WAVE
TRACK 04 AUDIO
TITLE "Out of It"
PERFORMER "Ellery Eskelin"
INDEX 01 00:00:00
FILE "05 - Seed Shack.wav" WAVE
TRACK 05 AUDIO
TITLE "Seed Shack"
PERFORMER "Ellery Eskelin"
INDEX 01 00:00:00
FILE "06 - Ca' Purange (Jungle Soul).wav" WAVE
TRACK 06 AUDIO
TITLE "Ca' Purange (Jungle Soul)"
PERFORMER "Ellery Eskelin"
INDEX 01 00:00:00
FILE "07 - The Sun Died.wav" WAVE
TRACK 07 AUDIO
TITLE "The Sun Died"
PERFORMER "Ellery Eskelin"
INDEX 01 00:00:00
FILE "08 - Jivin' Around.wav" WAVE
TRACK 08 AUDIO
TITLE "Jivin' Around"
PERFORMER "Ellery Eskelin"
INDEX 01 00:00:00
FILE "09 - Precious Memories.wav" WAVE
TRACK 09 AUDIO
TITLE "Precious Memories"
PERFORMER "Ellery Eskelin"
INDEX 01 00:00:00
FILE "10 - The Light.wav" WAVE
TRACK 10 AUDIO
TITLE "The Light"
PERFORMER "Ellery Eskelin"
INDEX 01 00:00:00
Any questions -> support@pro-jazz.com. По всем вопросам пишите -> support@pro-jazz.com
15:31
196
Нет комментариев. Ваш будет первым!