Вы используете незарегистрированную версию компонента "Вкладки"!

Поиск

(Free Jazz) Sonny Sharrock - Monkey-Pockie-Boo - 1970, FLAC (tracks+.cue), lossless

(Free Jazz) Sonny Sharrock - Monkey-Pockie-Boo - 1970, FLAC (tracks+.cue), lossless
Треклист:
Sonny Sharrock "Monkey-Pockie-Boo"
Жанр: Free Jazz
Год выпуска диска: 1970
Производитель диска: USA
Аудио кодек: FLAC
Тип рипа: tracks+.cue
Битрейт аудио: lossless
Продолжительность: 34:00
Трэклист:
1. 27th Day 17:01
2. Soon 7:59
3. Monkey-Pockie-Boo 9:00
Доп. информация:
Sonny Sharrock - guitar, slidewhistle, vocal
Linda Sharrock - vocal
Beb Guerin - bass
Jacques Thollot - drums
 
EAC extraction logfile
Exact Audio Copy V0.99 prebeta 5 from 4. May 2009
EAC extraction logfile from 11. August 2009, 9:55
Sonny Sharrock / Monkey-Pockie-Boo
Used drive : _NEC DVD_RW ND-4570A Adapter: 1 ID: 0
Read mode : Secure
Utilize accurate stream : Yes
Defeat audio cache : Yes
Make use of C2 pointers : No
Read offset correction : 48
Overread into Lead-In and Lead-Out : No
Fill up missing offset samples with silence : Yes
Delete leading and trailing silent blocks : No
Null samples used in CRC calculations : Yes
Used interface : Native Win32 interface for Win NT & 2000
Gap handling : Appended to previous track
Used output format : User Defined Encoder
Selected bitrate : 768 kBit/s
Quality : High
Add ID3 tag : No
Command line compressor : D:\Программы\EACCCC\Exact Audio Copy\FLAC\FLAC.EXE
Additional command line options : -8 -V -T "ARTIST=%a" -T "TITLE=%t" -T "ALBUM=%g" -T "DATE=%y" -T "TRACKNUMBER=%n" -T "GENRE=%m" -T "COMMENT=EAC FLAC -8" %s
TOC of the extracted CD
Track | Start | Length | Start sector | End sector
---------------------------------------------------------
1 | 0:00.00 | 17:01.30 | 0 | 76604
2 | 17:01.30 | 7:59.59 | 76605 | 112588
3 | 25:01.14 | 9:00.63 | 112589 | 153151
Track 1
Filename D:\MP3\Sonny Sharrock 1970 Monkey_pockie_boo\01. Sonny Sharrock - 27th Day.wav
Pre-gap length 0:00:02.00
Peak level 96.5 %
Track quality 99.9 %
Test CRC FFD4EC9B
Copy CRC FFD4EC9B
Copy OK
Track 2
Filename D:\MP3\Sonny Sharrock 1970 Monkey_pockie_boo\02. Sonny Sharrock - Soon.wav
Peak level 95.7 %
Track quality 100.0 %
Test CRC 96A6C885
Copy CRC 96A6C885
Copy OK
Track 3
Filename D:\MP3\Sonny Sharrock 1970 Monkey_pockie_boo\03. Sonny Sharrock - Monkey-Pockie-Boo.wav
Peak level 96.5 %
Track quality 100.0 %
Test CRC A1BA9712
Copy CRC A1BA9712
Copy OK
No errors occurred
End of status report
Any questions -> support@pro-jazz.com. По всем вопросам пишите -> support@pro-jazz.com
13:24
154
Нет комментариев. Ваш будет первым!