Вы используете незарегистрированную версию компонента "Вкладки"!

Поиск

(Free-Jazz) Sonny Sharrock - Black Woman - 1969, FLAC (tracks+.cue), lossless

(Free-Jazz) Sonny Sharrock - Black Woman - 1969, FLAC (tracks+.cue), lossless
Треклист:
Sonny Sharrock - Black Woman
Жанр: Free-Jazz
Год выпуска диска: 1969
Производитель диска: US
Аудио кодек: FLAC
Тип рипа: tracks+.cue
Битрейт аудио: lossless
Продолжительность: 31:08
Трэклист:
01 - Black Woman (5:14)
02 - Peanut (9:14)
03 - Bialero (4:52)
04 - Blind Willy (3:11)
05 - Portret Of Linda In Three Colors, All Black (8:37)
Доп. информация: Ted Daniel tr
Linda Sharrock voc
Dave Burrell p
Sonny Sharrock g
Norris Jones, Richard Pierce b
Milford Graves dr
 
X Lossless Decoder Log
X Lossless Decoder version 20090910 (109.7)
XLD extraction logfile from 2009-09-20 16:29:41 -0700
Sonny Sharrock / Black Woman
Used drive : MATSHITA DVD-R UJ-868 (revision KB19)
Use cdparanoia mode : YES (CDParanoia III 10.2 engine)
Disable audio cache : OK for the drive with cache less than 2750KB
Make use of C2 pointers : NO
Read offset correction : 102
Max retry count : 100
TOC of the extracted CD
Track | Start | Length | Start sector | End sector
---------------------------------------------------------
1 | 00:00:00 | 05:14:00 | 0 | 23549
2 | 05:14:00 | 09:14:37 | 23550 | 65136
3 | 14:28:37 | 04:51:48 | 65137 | 87009
4 | 19:20:10 | 03:10:72 | 87010 | 101331
5 | 22:31:07 | 08:37:35 | 101332 | 140141
Track 01
Filename : Sonny Sharrock - Black Woman [FLAC]/01 - Black Woman.flac
CRC32 hash (test run) : BA6632F5
CRC32 hash : BA6632F5
CRC32 hash (skip zero) : BEE73FA5
AccurateRip signature : 28E50882
->Accurately ripped! (confidence 1)
Statistics
Read error : 0
Skipped (treated as error) : 0
Edge jitter error (maybe fixed) : 0
Atom jitter error (maybe fixed) : 0
Drift error (maybe fixed) : 0
Dropped bytes error (maybe fixed) : 0
Duplicated bytes error (maybe fixed) : 0
Inconsistency in error sectors : 0
Track 02
Filename : Sonny Sharrock - Black Woman [FLAC]/02 - Peanut.flac
CRC32 hash (test run) : A00D0122
CRC32 hash : A00D0122
CRC32 hash (skip zero) : B47892BE
AccurateRip signature : 6B19FF1F
->Accurately ripped! (confidence 1)
Statistics
Read error : 0
Skipped (treated as error) : 0
Edge jitter error (maybe fixed) : 0
Atom jitter error (maybe fixed) : 0
Drift error (maybe fixed) : 0
Dropped bytes error (maybe fixed) : 0
Duplicated bytes error (maybe fixed) : 0
Inconsistency in error sectors : 0
Track 03
Filename : Sonny Sharrock - Black Woman [FLAC]/03 - Bialero.flac
CRC32 hash (test run) : 99C91A61
CRC32 hash : 99C91A61
CRC32 hash (skip zero) : 9DB2F52D
AccurateRip signature : 38C75F04
->Accurately ripped! (confidence 1)
Statistics
Read error : 0
Skipped (treated as error) : 0
Edge jitter error (maybe fixed) : 0
Atom jitter error (maybe fixed) : 0
Drift error (maybe fixed) : 0
Dropped bytes error (maybe fixed) : 0
Duplicated bytes error (maybe fixed) : 0
Inconsistency in error sectors : 0
Track 04
Filename : Sonny Sharrock - Black Woman [FLAC]/04 - Blind Willy.flac
CRC32 hash (test run) : F2A14AB8
CRC32 hash : F2A14AB8
CRC32 hash (skip zero) : 98C94726
AccurateRip signature : 4B6C284D
->Accurately ripped! (confidence 1)
Statistics
Read error : 0
Skipped (treated as error) : 0
Edge jitter error (maybe fixed) : 0
Atom jitter error (maybe fixed) : 0
Drift error (maybe fixed) : 0
Dropped bytes error (maybe fixed) : 0
Duplicated bytes error (maybe fixed) : 0
Inconsistency in error sectors : 0
Track 05
Filename : Sonny Sharrock - Black Woman [FLAC]/05 - Portret Of Linda In Three Colors, All Black.flac
CRC32 hash (test run) : EC44BE03
CRC32 hash : EC44BE03
CRC32 hash (skip zero) : 60AFED32
AccurateRip signature : 13548013
->Accurately ripped! (confidence 1)
Statistics
Read error : 0
Skipped (treated as error) : 0
Edge jitter error (maybe fixed) : 0
Atom jitter error (maybe fixed) : 0
Drift error (maybe fixed) : 0
Dropped bytes error (maybe fixed) : 0
Duplicated bytes error (maybe fixed) : 0
Inconsistency in error sectors : 0
No errors occurred
End of status report
Классика от Сонни Шеррока с супер-пупер ритм секцией Баррелл-Сироне-Грейвс (там правда Баррел и Сироне не на всех треках).
Скачано с what.cd и неединожды прослушано с огромным удовольствиям.
P.S. R.I.P. Sirone
Any questions -> support@pro-jazz.com. По всем вопросам пишите -> support@pro-jazz.com
15:39
160
Нет комментариев. Ваш будет первым!