Вы используете незарегистрированную версию компонента "Вкладки"!

Поиск

( free jazz) SKM(Stephen Gauci, Kris Davis, Michael Bisio) - Three 2010, FLAC (tracks+.cue), lossless

( free jazz) SKM(Stephen Gauci, Kris Davis, Michael Bisio) - Three 2010, FLAC (tracks+.cue), lossless
Треклист:


SKM(Stephen Gauci, Kris Davis, Michael Bisio) - Three 2010

Жанр: free jazz
Год выпуска: 2010
Издатель (лейбл):Clean Feed / CF189CD
Формат: FLAC (tracks+.cue)
Битрейт аудио: lossless
Продолжительность 53`41
Источник: what.cd
Double Bass – Michael Bisio
Piano – Kris Davis
Tenor Saxophone – Stephen Gauci

tracks

1 The End Must Always Come 7:11
2 Like A Dream, A Phantom 8:07
3 Something From Nothing 9:36
4 Groovin' For The Hell Of It 6:53
5 Still, So Beautiful 3:29
6 Now 5:19
7 No Reason To Or Not To 8:16
8 Just To Be Heard 4:45


 
.log
X Lossless Decoder version 20121222 (142.2)
XLD extraction logfile from 2013-01-13 12:20:35 +0400
SKM / Three
Used drive : HL-DT-ST DVDRW GX30N (revision RP09)
Media type : Pressed CD
Ripper mode : XLD Secure Ripper
Disable audio cache : OK for the drive with a cache less than 1375KiB
Make use of C2 pointers : NO
Read offset correction : 6
Max retry count : 20
Gap status : Analyzed, Appended
TOC of the extracted CD
Track | Start | Length | Start sector | End sector
---------------------------------------------------------
1 | 00:00:00 | 07:11:24 | 0 | 32348
2 | 07:11:24 | 08:07:27 | 32349 | 68900
3 | 15:18:51 | 09:36:63 | 68901 | 112163
4 | 24:55:39 | 06:53:59 | 112164 | 143197
5 | 31:49:23 | 03:29:40 | 143198 | 158912
6 | 35:18:63 | 05:19:66 | 158913 | 182903
7 | 40:38:54 | 08:16:25 | 182904 | 220128
8 | 48:55:04 | 04:45:39 | 220129 | 241542
AccurateRip Summary
Disc not found in AccurateRip DB.
All Tracks
Album gain : -4.30 dB
Peak : 0.993744
Statistics
Read error : 0
Jitter error (maybe fixed) : 0
Retry sector count : 0
Damaged sector count : 0
Track 01
Filename : /Users/anch/Music/FLAC/SKM - 2010 - Three [FLAC]/01 - The End Must Always Come.flac
/Users/anch/Music/FLAC/SKM - 2010 - Three [MP3 320]/01 - The End Must Always Come.mp3
/Users/anch/Music/FLAC/SKM - 2010 - Three [MP3 V0]/01 - The End Must Always Come.mp3
Pre-gap length : 00:02:00
Track gain : -6.13 dB
Peak : 0.993683
CRC32 hash (test run) : 7A7789B2
CRC32 hash : 7A7789B2
CRC32 hash (skip zero) : BB554B30
AccurateRip v1 signature : 96001E41
AccurateRip v2 signature : 8C820409
->Track not present in AccurateRip database.
Statistics
Read error : 0
Jitter error (maybe fixed) : 0
Retry sector count : 0
Damaged sector count : 0
Track 02
Filename : /Users/anch/Music/FLAC/SKM - 2010 - Three [FLAC]/02 - Like a Dream, a Phantom.flac
/Users/anch/Music/FLAC/SKM - 2010 - Three [MP3 320]/02 - Like a Dream, a Phantom.mp3
/Users/anch/Music/FLAC/SKM - 2010 - Three [MP3 V0]/02 - Like a Dream, a Phantom.mp3
Pre-gap length : 00:03:00
Track gain : -3.86 dB
Peak : 0.993744
CRC32 hash (test run) : E96E5E5D
CRC32 hash : E96E5E5D
CRC32 hash (skip zero) : 8D9D91D3
AccurateRip v1 signature : 6DC49A21
AccurateRip v2 signature : 57ED4D36
->Track not present in AccurateRip database.
Statistics
Read error : 0
Jitter error (maybe fixed) : 0
Retry sector count : 0
Damaged sector count : 0
Track 03
Filename : /Users/anch/Music/FLAC/SKM - 2010 - Three [FLAC]/03 - Something From Nothing.flac
/Users/anch/Music/FLAC/SKM - 2010 - Three [MP3 320]/03 - Something From Nothing.mp3
/Users/anch/Music/FLAC/SKM - 2010 - Three [MP3 V0]/03 - Something From Nothing.mp3
Pre-gap length : 00:03:00
Track gain : -2.58 dB
Peak : 0.993744
CRC32 hash (test run) : E9042D0E
CRC32 hash : E9042D0E
CRC32 hash (skip zero) : A9015EF2
AccurateRip v1 signature : D6A30DFB
AccurateRip v2 signature : D284CC2C
->Track not present in AccurateRip database.
Statistics
Read error : 0
Jitter error (maybe fixed) : 0
Retry sector count : 0
Damaged sector count : 0
Track 04
Filename : /Users/anch/Music/FLAC/SKM - 2010 - Three [FLAC]/04 - Groovin' for the Hell of it.flac
/Users/anch/Music/FLAC/SKM - 2010 - Three [MP3 320]/04 - Groovin' for the Hell of it.mp3
/Users/anch/Music/FLAC/SKM - 2010 - Three [MP3 V0]/04 - Groovin' for the Hell of it.mp3
Pre-gap length : 00:03:00
Track gain : -5.86 dB
Peak : 0.993744
CRC32 hash (test run) : 6D1AF23D
CRC32 hash : 6D1AF23D
CRC32 hash (skip zero) : 4740F53C
AccurateRip v1 signature : 842EAD89
AccurateRip v2 signature : 89B162D6
->Track not present in AccurateRip database.
Statistics
Read error : 0
Jitter error (maybe fixed) : 0
Retry sector count : 0
Damaged sector count : 0
Track 05
Filename : /Users/anch/Music/FLAC/SKM - 2010 - Three [FLAC]/05 - Still, so Beautiful.flac
/Users/anch/Music/FLAC/SKM - 2010 - Three [MP3 320]/05 - Still, so Beautiful.mp3
/Users/anch/Music/FLAC/SKM - 2010 - Three [MP3 V0]/05 - Still, so Beautiful.mp3
Pre-gap length : 00:03:00
Track gain : -2.30 dB
Peak : 0.993713
CRC32 hash (test run) : 68DC89E0
CRC32 hash : 68DC89E0
CRC32 hash (skip zero) : 617E095B
AccurateRip v1 signature : 67453B6A
AccurateRip v2 signature : FF893E1C
->Track not present in AccurateRip database.
Statistics
Read error : 0
Jitter error (maybe fixed) : 0
Retry sector count : 0
Damaged sector count : 0
Track 06
Filename : /Users/anch/Music/FLAC/SKM - 2010 - Three [FLAC]/06 - Now.flac
/Users/anch/Music/FLAC/SKM - 2010 - Three [MP3 320]/06 - Now.mp3
/Users/anch/Music/FLAC/SKM - 2010 - Three [MP3 V0]/06 - Now.mp3
Pre-gap length : 00:03:00
Track gain : 0.72 dB
Peak : 0.993713
CRC32 hash (test run) : 9EA2B074
CRC32 hash : 9EA2B074
CRC32 hash (skip zero) : 6F97488A
AccurateRip v1 signature : 4F575D51
AccurateRip v2 signature : C6893949
->Track not present in AccurateRip database.
Statistics
Read error : 0
Jitter error (maybe fixed) : 0
Retry sector count : 0
Damaged sector count : 0
Track 07
Filename : /Users/anch/Music/FLAC/SKM - 2010 - Three [FLAC]/07 - No Reason To or Not To.flac
/Users/anch/Music/FLAC/SKM - 2010 - Three [MP3 320]/07 - No Reason To or Not To.mp3
/Users/anch/Music/FLAC/SKM - 2010 - Three [MP3 V0]/07 - No Reason To or Not To.mp3
Pre-gap length : 00:03:00
Track gain : -3.42 dB
Peak : 0.993683
CRC32 hash (test run) : B6D1675B
CRC32 hash : B6D1675B
CRC32 hash (skip zero) : 5D1D6DFB
AccurateRip v1 signature : B8AB66D9
AccurateRip v2 signature : 1738E9D1
->Track not present in AccurateRip database.
Statistics
Read error : 0
Jitter error (maybe fixed) : 0
Retry sector count : 0
Damaged sector count : 0
Track 08
Filename : /Users/anch/Music/FLAC/SKM - 2010 - Three [FLAC]/08 - Just to be Heard.flac
/Users/anch/Music/FLAC/SKM - 2010 - Three [MP3 320]/08 - Just to be Heard.mp3
/Users/anch/Music/FLAC/SKM - 2010 - Three [MP3 V0]/08 - Just to be Heard.mp3
Pre-gap length : 00:03:00
Track gain : -3.97 dB
Peak : 0.993744
CRC32 hash (test run) : 67CC4B2E
CRC32 hash : 67CC4B2E
CRC32 hash (skip zero) : 396D6DE6
AccurateRip v1 signature : 6885862B
AccurateRip v2 signature : E679BF8C
->Track not present in AccurateRip database.
Statistics
Read error : 0
Jitter error (maybe fixed) : 0
Retry sector count : 0
Damaged sector count : 0
No errors occurred
End of status report
 
.cue
TITLE "Three"
PERFORMER "SKM"
REM GENRE "Free Jazz"
REM DATE "2010"
REM DISCID 5C0C9408
REM REPLAYGAIN_ALBUM_GAIN -4.30 dB
REM REPLAYGAIN_ALBUM_PEAK 0.993744
FILE "01 - The End Must Always Come.flac" WAVE
TRACK 01 AUDIO
TITLE "The End Must Always Come"
PERFORMER "SKM"
REM REPLAYGAIN_TRACK_GAIN -6.13 dB
REM REPLAYGAIN_TRACK_PEAK 0.993683
INDEX 01 00:00:00
TRACK 02 AUDIO
TITLE "Like a Dream, a Phantom"
PERFORMER "SKM"
REM REPLAYGAIN_TRACK_GAIN -3.86 dB
REM REPLAYGAIN_TRACK_PEAK 0.993744
INDEX 00 07:08:24
FILE "02 - Like a Dream, a Phantom.flac" WAVE
INDEX 01 00:00:00
TRACK 03 AUDIO
TITLE "Something From Nothing"
PERFORMER "SKM"
REM REPLAYGAIN_TRACK_GAIN -2.58 dB
REM REPLAYGAIN_TRACK_PEAK 0.993744
INDEX 00 08:04:27
FILE "03 - Something From Nothing.flac" WAVE
INDEX 01 00:00:00
TRACK 04 AUDIO
TITLE "Groovin' for the Hell of it"
PERFORMER "SKM"
REM REPLAYGAIN_TRACK_GAIN -5.86 dB
REM REPLAYGAIN_TRACK_PEAK 0.993744
INDEX 00 09:33:63
FILE "04 - Groovin' for the Hell of it.flac" WAVE
INDEX 01 00:00:00
TRACK 05 AUDIO
TITLE "Still, so Beautiful"
PERFORMER "SKM"
REM REPLAYGAIN_TRACK_GAIN -2.30 dB
REM REPLAYGAIN_TRACK_PEAK 0.993713
INDEX 00 06:50:59
FILE "05 - Still, so Beautiful.flac" WAVE
INDEX 01 00:00:00
TRACK 06 AUDIO
TITLE "Now"
PERFORMER "SKM"
REM REPLAYGAIN_TRACK_GAIN 0.72 dB
REM REPLAYGAIN_TRACK_PEAK 0.993713
INDEX 00 03:26:40
FILE "06 - Now.flac" WAVE
INDEX 01 00:00:00
TRACK 07 AUDIO
TITLE "No Reason To or Not To"
PERFORMER "SKM"
REM REPLAYGAIN_TRACK_GAIN -3.42 dB
REM REPLAYGAIN_TRACK_PEAK 0.993683
INDEX 00 05:16:66
FILE "07 - No Reason To or Not To.flac" WAVE
INDEX 01 00:00:00
TRACK 08 AUDIO
TITLE "Just to be Heard"
PERFORMER "SKM"
REM REPLAYGAIN_TRACK_GAIN -3.97 dB
REM REPLAYGAIN_TRACK_PEAK 0.993744
INDEX 00 08:13:25
FILE "08 - Just to be Heard.flac" WAVE
INDEX 01 00:00:00

другие релизы
Any questions -> support@pro-jazz.com. По всем вопросам пишите -> support@pro-jazz.com
07:50
218
Нет комментариев. Ваш будет первым!