Вы используете незарегистрированную версию компонента "Вкладки"!

Поиск

(Free Jazz) SIC Trio (Giancarlo Schiaffini/Eugenio Colombo/Michele Iannaccone) - Passemmezzo - 6/1997, FLAC (tracks+.cue), lossless

(Free Jazz) SIC Trio (Giancarlo Schiaffini/Eugenio Colombo/Michele Iannaccone) - Passemmezzo - 6/1997, FLAC (tracks+.cue), lossless
Треклист:
SIC Trio / Passemmezzo
Жанр: Free Jazz
Страна-производитель диска: Italy
Год издания: 6/1997
Издатель (лейбл): Splasc(H) Records
Номер по каталогу: CDH 616 - 2
Страна: Italy
Аудиокодек: FLAC (*.flac)
Тип рипа: tracks+.cue
Битрейт аудио: lossless
Продолжительность: 1:00:20.
Источник (релизер): clustert
Наличие сканов в содержимом раздачи: да
Треклист:
01. Pezzo con vezzo 04:06
02. Pezzo senza prezzo 04:05
03. Lezzo di pezzo 04:13.
04. Pezzo con ribrezzo 08:40
05. Tramezzo 05:32
06. Pezzo di mezzo 05:01
07. Pezzo con olezzo 11:22
08. Pezzo con disprezzo 04:58
09. Pezzo di pezzo 05:30
10. Intermezzo 02:27
11. Rappezzo 04:20
 
Лог создания рипа
Exact Audio Copy V1.0 beta 3 from 29. August 2011
Отчёт EAC об извлечении, выполненном 10. декабря 2012, 18:31
SIC Trio / Passemmezzo
Дисковод: ASUS DRW-1814BLT Adapter: 4 ID: 0
Режим чтения : Достоверность
Использование точного потока : Да
Отключение кэша аудио : Да
Использование указателей C2 : Нет
Коррекция смещения при чтении : 6
Способность читать области Lead-in и Lead-out : Нет
Заполнение пропущенных сэмплов тишиной : Да
Удаление блоков с тишиной в начале и конце : Нет
При вычислениях CRC использовались нулевые сэмплы : Да
Интерфейс : Встроенный Win32-интерфейс для Win NT/2000
Обработка зазоров : Добавлено к предыдущему треку
Выходной формат : Пользовательский кодировщик
Выбранный битрейт : 128 kBit/s
Качество : Высокий
Добавление ID3-тега : Нет
Утилита сжатия : C:\Program Files\Exact Audio Copy\Flac\flac.exe
Дополнительные параметры : -V -8 -T "Genre=%genre%" -T "Artist=%artist%" -T "Title=%title%" -T "Album=%albumtitle%" -T "Date=%year%" -T "Tracknumber=%tracknr%" -T "Comment=EAC1.0b2 FLAC -8" %source%
TOC извлечённого CD
Трек | Старт | Длительность | Начальный сектор | Конечный сектор
---------------------------------------------------------------------
1 | 0:00.00 | 4:06.17 | 0 | 18466
2 | 4:06.17 | 4:05.00 | 18467 | 36841
3 | 8:11.17 | 4:13.63 | 36842 | 55879
4 | 12:25.05 | 8:40.57 | 55880 | 94936
5 | 21:05.62 | 5:32.67 | 94937 | 119903
6 | 26:38.54 | 5:01.68 | 119904 | 142546
7 | 31:40.47 | 11:22.48 | 142547 | 193744
8 | 43:03.20 | 4:58.00 | 193745 | 216094
9 | 48:01.20 | 5:30.57 | 216095 | 240901
10 | 53:32.02 | 2:27.30 | 240902 | 251956
11 | 55:59.32 | 4:20.63 | 251957 | 271519
Трек 1
Имя файла R:\Раздача\SIC Trio - Passemmezzo - 1997\01 Pezzo con vezzo.wav
Длина предзазора 0:00:02.00
Пиковый уровень 97.7 %
Скорость извлечения 2.6 X
Качество трека 100.0 %
CRC теста AE805B16
CRC копии AE805B16
Копирование... OK
Трек 2
Имя файла R:\Раздача\SIC Trio - Passemmezzo - 1997\02 Pezzo senza prezzo.wav
Пиковый уровень 99.9 %
Скорость извлечения 2.6 X
Качество трека 99.9 %
CRC теста 7C5005BC
CRC копии 7C5005BC
Копирование... OK
Трек 3
Имя файла R:\Раздача\SIC Trio - Passemmezzo - 1997\03 Lezzo di pezzo.wav
Пиковый уровень 99.9 %
Скорость извлечения 3.2 X
Качество трека 100.0 %
CRC теста 5576BD87
CRC копии 5576BD87
Копирование... OK
Трек 4
Имя файла R:\Раздача\SIC Trio - Passemmezzo - 1997\04 Pezzo con ribrezzo.wav
Пиковый уровень 99.9 %
Скорость извлечения 3.8 X
Качество трека 100.0 %
CRC теста EBA8278E
CRC копии EBA8278E
Копирование... OK
Трек 5
Имя файла R:\Раздача\SIC Trio - Passemmezzo - 1997\05 Tramezzo.wav
Пиковый уровень 99.9 %
Скорость извлечения 4.0 X
Качество трека 100.0 %
CRC теста 4305DE74
CRC копии 4305DE74
Копирование... OK
Трек 6
Имя файла R:\Раздача\SIC Trio - Passemmezzo - 1997\06 Pezzo di mezzo.wav
Пиковый уровень 82.2 %
Скорость извлечения 4.2 X
Качество трека 100.0 %
CRC теста E8B1D68C
CRC копии E8B1D68C
Копирование... OK
Трек 7
Имя файла R:\Раздача\SIC Trio - Passemmezzo - 1997\07 Pezzo con olezzo.wav
Длина предзазора 0:00:00.01
Пиковый уровень 78.2 %
Скорость извлечения 4.9 X
Качество трека 100.0 %
CRC теста BE370805
CRC копии BE370805
Копирование... OK
Трек 8
Имя файла R:\Раздача\SIC Trio - Passemmezzo - 1997\08 Pezzo con disorezzo.wav
Пиковый уровень 51.4 %
Скорость извлечения 4.9 X
Качество трека 100.0 %
CRC теста 5ABAA201
CRC копии 5ABAA201
Копирование... OK
Трек 9
Имя файла R:\Раздача\SIC Trio - Passemmezzo - 1997\09 Pezzo di pezzo.wav
Пиковый уровень 44.6 %
Скорость извлечения 5.2 X
Качество трека 100.0 %
CRC теста 3749B224
CRC копии 3749B224
Копирование... OK
Трек 10
Имя файла R:\Раздача\SIC Trio - Passemmezzo - 1997\10 Intermezzo.wav
Пиковый уровень 41.2 %
Скорость извлечения 3.9 X
Качество трека 99.9 %
CRC теста EEA43F23
CRC копии EEA43F23
Копирование... OK
Трек 11
Имя файла R:\Раздача\SIC Trio - Passemmezzo - 1997\11 Rappezzo.wav
Пиковый уровень 52.3 %
Скорость извлечения 5.3 X
Качество трека 100.0 %
CRC теста C4363086
CRC копии C4363086
Копирование... OK
Ошибок не произошло
Конец отчёта
==== Контрольная сумма отчёта F067B8A9465BD30AA12A82A3B79679D04D648D29B830CABDD8CCC9312FC25B83 ====
 
Содержание индексной карты (.CUE)
REM GENRE "Free Jazz"
REM DATE 1997
REM DISCID 950E240B
REM COMMENT "ExactAudioCopy v1.0b3"
CATALOG 0000000000000
PERFORMER "SIC Trio"
TITLE "Passemmezzo"
FILE "01 Pezzo con vezzo.wav" WAVE
TRACK 01 AUDIO
TITLE "Pezzo con vezzo"
PERFORMER "SIC Trio"
INDEX 01 00:00:00
FILE "02 Pezzo senza prezzo.wav" WAVE
TRACK 02 AUDIO
TITLE "Pezzo senza prezzo"
PERFORMER "SIC Trio"
INDEX 01 00:00:00
FILE "03 Lezzo di pezzo.wav" WAVE
TRACK 03 AUDIO
TITLE "Lezzo di pezzo"
PERFORMER "SIC Trio"
INDEX 01 00:00:00
FILE "04 Pezzo con ribrezzo.wav" WAVE
TRACK 04 AUDIO
TITLE "Pezzo con ribrezzo"
PERFORMER "SIC Trio"
INDEX 01 00:00:00
FILE "05 Tramezzo.wav" WAVE
TRACK 05 AUDIO
TITLE "Tramezzo"
PERFORMER "SIC Trio"
INDEX 01 00:00:00
FILE "06 Pezzo di mezzo.wav" WAVE
TRACK 06 AUDIO
TITLE "Pezzo di mezzo"
PERFORMER "SIC Trio"
INDEX 01 00:00:00
TRACK 07 AUDIO
TITLE "Pezzo con olezzo"
PERFORMER "SIC Trio"
INDEX 00 05:01:67
FILE "07 Pezzo con olezzo.wav" WAVE
INDEX 01 00:00:00
FILE "08 Pezzo con disprezzo.wav" WAVE
TRACK 08 AUDIO
TITLE "Pezzo con disprezzo"
PERFORMER "SIC Trio"
INDEX 01 00:00:00
FILE "09 Pezzo di pezzo.wav" WAVE
TRACK 09 AUDIO
TITLE "Pezzo di pezzo"
PERFORMER "SIC Trio"
INDEX 01 00:00:00
FILE "10 Intermezzo.wav" WAVE
TRACK 10 AUDIO
TITLE "Intermezzo"
PERFORMER "SIC Trio"
INDEX 01 00:00:00
FILE "11 Rappezzo.wav" WAVE
TRACK 11 AUDIO
TITLE "Rappezzo"
PERFORMER "SIC Trio"
INDEX 01 00:00:00
 
Состав
Giancarlo Schiaffini: trombone
Eugenio Colombo: alto sax, soprano sax, flute
Michele Iannaccone: percussion
Any questions -> support@pro-jazz.com. По всем вопросам пишите -> support@pro-jazz.com
06:17
132
Нет комментариев. Ваш будет первым!