Вы используете незарегистрированную версию компонента "Вкладки"!

Поиск

(Free Jazz) School Days (Ken Vandermark) - In Our Times - 2002, FLAC (image+.cue), lossless

(Free Jazz) School Days (Ken Vandermark) - In Our Times - 2002, FLAC (image+.cue), lossless
Треклист:
School Days (Ken Vandermark) - In Our Times
Жанр: Free Jazz
Год выпуска диска: 2002
Производитель диска: USA (Okka)
Аудио кодек: FLAC
Тип рипа: image+.cue
Битрейт аудио: lossless
Продолжительность: 62.53
Трэклист:
1 Another Double (Vandermark) 8:26
2 Off the Top (Vandermark) 9:39
3 What About (Vandermark) 9:18
4 Shift (Vandermark) 11:54
5 Octopus (Bishop) 8:00
6 Loose Blues (B. Evans) 8:14
7 Elephantasy (Cherry) 7:22
Доп. информация: Ken Vandermark - reeds
Jeb Bishop - trombone
Kjell Nordeson - vibraphone
Ingebrigt Haker-Flaten - bass
Paal Nilssen-Love - drums
рип собственный
 
eac log
Exact Audio Copy V0.99 prebeta 5 from 4. May 2009
EAC extraction logfile from 31. March 2010, 23:47
School Days [Ken Vandermark, Joe Bishop, Kjell Nordeson, Ingebrigt Haker Flaten, Paal Nilssen-Love] / In Our Times
Used drive : TSSTcorpCDDVDW TS-L633C Adapter: 0 ID: 1
Read mode : Secure
Utilize accurate stream : Yes
Defeat audio cache : Yes
Make use of C2 pointers : No
Read offset correction : 6
Overread into Lead-In and Lead-Out : No
Fill up missing offset samples with silence : Yes
Delete leading and trailing silent blocks : No
Null samples used in CRC calculations : Yes
Used interface : Native Win32 interface for Win NT & 2000
Used output format : User Defined Encoder
Selected bitrate : 768 kBit/s
Quality : High
Add ID3 tag : No
Command line compressor : C:\Program Files (x86)\Exact Audio Copy\Flac\flac.exe
Additional command line options : -8 -V %s
TOC of the extracted CD
Track | Start | Length | Start sector | End sector
---------------------------------------------------------
1 | 0:00.00 | 8:25.53 | 0 | 37927
2 | 8:25.53 | 9:39.22 | 37928 | 81374
3 | 18:05.00 | 9:17.62 | 81375 | 123211
4 | 27:22.62 | 11:54.22 | 123212 | 176783
5 | 39:17.09 | 8:00.20 | 176784 | 212803
6 | 47:17.29 | 8:13.46 | 212804 | 249824
7 | 55:31.00 | 7:22.07 | 249825 | 282981
Range status and errors
Selected range
Filename C:\CDs\School Days - In Our Times\School Days [Ken Vandermark, Joe Bishop, Kjell Nordeson, Ingebrigt Haker Flaten, Paal Nilssen-Love] - In Our Times.wav
Peak level 98.8 %
Range quality 99.9 %
Copy CRC 62096E28
Copy OK
No errors occurred
AccurateRip summary
Track 1 accurately ripped (confidence 2) [27E2E845]
Track 2 accurately ripped (confidence 2) [FD89FAA4]
Track 3 accurately ripped (confidence 2) [4EBC6E94]
Track 4 accurately ripped (confidence 2) [B928A81C]
Track 5 accurately ripped (confidence 2) [04F93BEA]
Track 6 accurately ripped (confidence 2) [C66A6F58]
Track 7 accurately ripped (confidence 2) [6E6B1F5F]
All tracks accurately ripped
End of status report
Any questions -> support@pro-jazz.com. По всем вопросам пишите -> support@pro-jazz.com
20:28
138
Нет комментариев. Ваш будет первым!