Вы используете незарегистрированную версию компонента "Вкладки"!

Поиск

( free jazz ) Sam Rivers - 3 штуки, Contours 1965, Concept 1995-96, Portrait 1997, FLAC (tracks+.cue), lossless

Треклист:


Sam Rivers
Contours 1965
Concept 1995-96
Portrait 1997
Жанр: free jazz
Формат: FLAC (tracks+.cue)
Битрейт аудио: lossless
Источник: what.cd
 
Contours 1965



Contours 1965
Sam Rivers (flute, soprano saxophone, tenor saxophone);
Freddie Hubbard (trumpet);
Herbie Hancock (piano);
Ron Carter (bass instrument);
Joe Chambers (drums).
Liner Note Author: Don Heckman.
Recording information: Van Gelder Studios, Englewood Cliffs, New Jersey (05/21/1965).
Blue Note Records
time:49`26

01 Point of Many Returns
02 Dance of the Tripedal
03 Euterpe
04 Mellifluous Cacophony
05 Mellifluous Cacophony (alt tk)

 
.log
Exact Audio Copy V0.99 prebeta 3 from 28. July 2007
EAC extraction logfile from 21. March 2008, 17:17
Sam Rivers / Contours
Used drive : SONY DVD RW AW-G170A Adapter: 3 ID: 0
Read mode : Secure
Utilize accurate stream : Yes
Defeat audio cache : Yes
Make use of C2 pointers : No
Read offset correction : 48
Overread into Lead-In and Lead-Out : No
Fill up missing offset samples with silence : Yes
Delete leading and trailing silent blocks : No
Null samples used in CRC calculations : Yes
Used interface : Installed external ASPI interface
Gap handling : Appended to previous track
Used output format : User Defined Encoder
Selected bitrate : 192 kBit/s
Quality : High
Add ID3 tag : No
Command line compressor : C:\Program Files\Applications\Exact Audio Copy\Flac\flac.exe
Additional command line options : -8 -A tukey(0.25) -A gauss(0.1875) -b 4096 -V -T "artist=%a" -T "title=%t" -T "album=%g" -T "date=%y" -T "tracknumber=%n" -T "genre=%m" %s --sector-align
TOC of the extracted CD
Track | Start | Length | Start sector | End sector
---------------------------------------------------------
1 | 0:00.00 | 9:23.69 | 0 | 42293
2 | 9:23.69 | 10:10.37 | 42294 | 88080
3 | 19:34.31 | 11:46.20 | 88081 | 141050
4 | 31:20.51 | 9:00.51 | 141051 | 181601
5 | 40:21.27 | 9:04.50 | 181602 | 222451
Track 1
Filename C:\Users\Eklade\Desktop\Sam Rivers - Contours\01 - Sam Rivers - Point of Many Returns.wav
Pre-gap length 0:00:02.00
Peak level 98.9 %
Track quality 100.0 %
Test CRC 7107889B
Copy CRC 7107889B
Copy OK
Track 2
Filename C:\Users\Eklade\Desktop\Sam Rivers - Contours\02 - Sam Rivers - Dance of the Tripedal.wav
Pre-gap length 0:00:03.49
Peak level 98.8 %
Track quality 100.0 %
Test CRC 814C8BD0
Copy CRC 814C8BD0
Copy OK
Track 3
Filename C:\Users\Eklade\Desktop\Sam Rivers - Contours\03 - Sam Rivers - Euterpe.wav
Pre-gap length 0:00:02.90
Peak level 100.0 %
Track quality 99.9 %
Test CRC 78B198F7
Copy CRC 78B198F7
Copy OK
Track 4
Filename C:\Users\Eklade\Desktop\Sam Rivers - Contours\04 - Sam Rivers - Mellifluous Cacophony.wav
Pre-gap length 0:00:03.08
Peak level 98.9 %
Track quality 100.0 %
Test CRC 37E24FCC
Copy CRC 37E24FCC
Copy OK
Track 5
Filename C:\Users\Eklade\Desktop\Sam Rivers - Contours\05 - Sam Rivers - Mellifluous Cacophony (alt tk).wav
Pre-gap length 0:00:01.74
Peak level 93.3 %
Track quality 100.0 %
Test CRC 1143E656
Copy CRC 1143E656
Copy OK
No errors occurred
End of status report
 
.cue
REM GENRE Jazz
REM DATE 1965
REM DISCID 3F0B9605
REM COMMENT "ExactAudioCopy v0.99pb3"
PERFORMER "Sam Rivers"
TITLE "Contours"
FILE "01 - Sam Rivers - Point of Many Returns.wav" WAVE
TRACK 01 AUDIO
TITLE "Point of Many Returns"
PERFORMER "Sam Rivers"
INDEX 01 00:00:00
TRACK 02 AUDIO
TITLE "Dance of the Tripedal"
PERFORMER "Sam Rivers"
INDEX 00 09:20:32
FILE "02 - Sam Rivers - Dance of the Tripedal.wav" WAVE
INDEX 01 00:00:00
TRACK 03 AUDIO
TITLE "Euterpe"
PERFORMER "Sam Rivers"
INDEX 00 10:07:44
FILE "03 - Sam Rivers - Euterpe.wav" WAVE
INDEX 01 00:00:00
TRACK 04 AUDIO
TITLE "Mellifluous Cacophony"
PERFORMER "Sam Rivers"
INDEX 00 11:43:14
FILE "04 - Sam Rivers - Mellifluous Cacophony.wav" WAVE
INDEX 01 00:00:00
TRACK 05 AUDIO
TITLE "Mellifluous Cacophony (alt tk)"
PERFORMER "Sam Rivers"
INDEX 00 08:58:70
FILE "05 - Sam Rivers - Mellifluous Cacophony (alt tk).wav" WAVE
INDEX 01 00:00:00
 
.accurip
[CUETools log; Date: 28/05/12 18:13:21; Version: 2.1.2a]
[CTDB TOCID: xeGq3DzzWC4F9wCL6xMnT0zLpeU-] found.
[ CTDBID ] Status
[c549f31a] (8/8) Accurately ripped
[AccurateRip ID: 000a4e98-0030272e-3f0b9605] found.
Track [ CRC ] Status
01 [468ec95b] (07/11) Accurately ripped
02 [786a6e75] (07/11) Accurately ripped
03 [03246474] (07/11) Accurately ripped
04 [a870035c] (07/11) Accurately ripped
05 [d40765ba] (06/10) Accurately ripped
AccurateRip v2:
01 [e5287e15] (02/11) Accurately ripped
02 [6ab49ac7] (02/11) Accurately ripped
03 [8216ba63] (02/11) Accurately ripped
04 [cc44be06] (02/11) Accurately ripped
05 [8dbe2362] (02/10) Accurately ripped
Offsetted by -664:
01 [24020aa1] (02/11) Accurately ripped
02 [bacfb48a] (02/11) Accurately ripped
03 [3cd379bc] (02/11) Accurately ripped
04 [4cef1952] (02/11) Accurately ripped
05 [e3a19911] (02/10) Accurately ripped
Track Peak [ CRC32 ] [W/O NULL] [ LOG ]
-- 100.0 [4C40C420] [A97B2AC1]
01 98.9 [7107889B] [578AB469] CRC32
02 98.8 [814C8BD0] [4D9C8E4F] CRC32
03 100.0 [78B198F7] [E934044F] CRC32
04 98.9 [37E24FCC] [8D40D984] CRC32
05 93.3 [1143E656] [22A5E738] CRC32
 
Concept 1995-96



Concept 1995-96
Anthony Cole Drums, Sax (Tenor)
Doug Mathews Bass, Bass (Acoustic), Bass (Electric), Bass (Upright), Clarinet (Bass), Engineer, Mixing, Producer
Sam Rivers Composer, Flute, Piano, Sax (Soprano), Sax (Tenor)
Rivbea 50101
time 1`06`29

01 View
02 Sprung
03 Aspect
04 Point
05 Line
06 Concept
07 Link
08 Notion
09 Fugure

 
.log
Exact Audio Copy V0.99 prebeta 4 from 23. January 2008
EAC extraction logfile from 20. February 2009, 14:01
Sam Rivers / Concept
Used drive : TSSTcorpCD/DVDW SH-S182F Adapter: 0 ID: 0
Read mode : Secure
Utilize accurate stream : Yes
Defeat audio cache : No
Make use of C2 pointers : No
Read offset correction : 6
Overread into Lead-In and Lead-Out : No
Fill up missing offset samples with silence : Yes
Delete leading and trailing silent blocks : No
Null samples used in CRC calculations : No
Used interface : Native Win32 interface for Win NT & 2000
Gap handling : Not detected, thus appended to previous track
Used output format : User Defined Encoder
Selected bitrate : 192 kBit/s
Quality : High
Add ID3 tag : No
Command line compressor : C:\Program Files\FLAC\flac.exe
Additional command line options : -T "artist=%a" -T "title=%t" -T "album=%g" -T "date=%y" -T "tracknumber=%n" -T "genre=%m" -8 %s
TOC of the extracted CD
Track | Start | Length | Start sector | End sector
---------------------------------------------------------
1 | 0:00.00 | 5:03.46 | 0 | 22770
2 | 5:03.46 | 4:57.08 | 22771 | 45053
3 | 10:00.54 | 12:22.13 | 45054 | 100716
4 | 22:22.67 | 8:01.08 | 100717 | 136799
5 | 30:24.00 | 14:01.69 | 136800 | 199943
6 | 44:25.69 | 6:00.68 | 199944 | 227011
7 | 50:26.62 | 9:42.65 | 227012 | 270726
8 | 60:09.52 | 2:45.21 | 270727 | 283122
9 | 62:54.73 | 3:34.09 | 283123 | 299181
Track 1
Filename C:\Documents and Settings\My Documents\My Music\EAC\Rivers, Sam\Concept\01 - View.wav
Peak level 92.6 %
Track quality 100.0 %
Copy CRC 40738651
Accurately ripped (confidence 1) [E00C17D8]
Copy OK
Track 2
Filename C:\Documents and Settings\My Documents\My Music\EAC\Rivers, Sam\Concept\02 - Sprung.wav
Peak level 87.1 %
Track quality 100.0 %
Copy CRC 48A43D21
Accurately ripped (confidence 1) [62861AE8]
Copy OK
Track 3
Filename C:\Documents and Settings\My Documents\My Music\EAC\Rivers, Sam\Concept\03 - Aspect.wav
Peak level 85.0 %
Track quality 99.9 %
Copy CRC E01937D3
Accurately ripped (confidence 1) [B73BC4F1]
Copy OK
Track 4
Filename C:\Documents and Settings\My Documents\My Music\EAC\Rivers, Sam\Concept\04 - Point.wav
Peak level 73.8 %
Track quality 100.0 %
Copy CRC D4510FDE
Accurately ripped (confidence 1) [E4B148B0]
Copy OK
Track 5
Filename C:\Documents and Settings\My Documents\My Music\EAC\Rivers, Sam\Concept\05 - Line.wav
Peak level 100.0 %
Track quality 100.0 %
Copy CRC 310FA834
Accurately ripped (confidence 1) [D06ECB97]
Copy OK
Track 6
Filename C:\Documents and Settings\My Documents\My Music\EAC\Rivers, Sam\Concept\06 - Concept.wav
Peak level 100.0 %
Track quality 100.0 %
Copy CRC A9156913
Accurately ripped (confidence 1) [1AA93858]
Copy OK
Track 7
Filename C:\Documents and Settings\My Documents\My Music\EAC\Rivers, Sam\Concept\07 - Link.wav
Peak level 71.0 %
Track quality 100.0 %
Copy CRC 5A88423B
Accurately ripped (confidence 1) [877A87A7]
Copy OK
Track 8
Filename C:\Documents and Settings\My Documents\My Music\EAC\Rivers, Sam\Concept\08 - Notion.wav
Peak level 100.0 %
Track quality 100.0 %
Copy CRC 019C1F5A
Accurately ripped (confidence 1) [604364B6]
Copy OK
Track 9
Filename C:\Documents and Settings\My Documents\My Music\EAC\Rivers, Sam\Concept\09 - Fugure.wav
Peak level 86.4 %
Track quality 100.0 %
Copy CRC 3F233E40
Accurately ripped (confidence 1) [164A5821]
Copy OK
All tracks accurately ripped
No errors occurred
End of status report
 
.cue
REM ACCURATERIPID 001830b2-00b37990-730f9509
REM COMMENT "CUETools generated dummy CUE sheet"
PERFORMER "Sam Rivers"
TITLE "Concept"
REM DATE 1995
REM GENRE "Avant - jazz"
FILE "01 View.flac" WAVE
TRACK 01 AUDIO
PERFORMER "Sam Rivers"
TITLE "View"
INDEX 01 00:00:00
FILE "02 Sprung.flac" WAVE
TRACK 02 AUDIO
PERFORMER "Sam Rivers"
TITLE "Sprung"
INDEX 01 00:00:00
FILE "03 Aspect.flac" WAVE
TRACK 03 AUDIO
PERFORMER "Sam Rivers"
TITLE "Aspect"
INDEX 01 00:00:00
FILE "04 Point.flac" WAVE
TRACK 04 AUDIO
PERFORMER "Sam Rivers"
TITLE "Point"
INDEX 01 00:00:00
FILE "05 Line.flac" WAVE
TRACK 05 AUDIO
PERFORMER "Sam Rivers"
TITLE "Line"
INDEX 01 00:00:00
FILE "06 Concept.flac" WAVE
TRACK 06 AUDIO
PERFORMER "Sam Rivers"
TITLE "Concept"
INDEX 01 00:00:00
FILE "07 Link.flac" WAVE
TRACK 07 AUDIO
PERFORMER "Sam Rivers"
TITLE "Link"
INDEX 01 00:00:00
FILE "08 Notion.flac" WAVE
TRACK 08 AUDIO
PERFORMER "Sam Rivers"
TITLE "Notion"
INDEX 01 00:00:00
FILE "09 Fugure.flac" WAVE
TRACK 09 AUDIO
PERFORMER "Sam Rivers"
TITLE "Fugure"
INDEX 01 00:00:00
 
.accurip
[CUETools log; Date: 28/05/12 18:12:07; Version: 2.1.2a]
[CTDB TOCID: pTCbqSlDlAZcbVvQCspVsFw4vP8-] disk not present in database.
[AccurateRip ID: 001830b2-00b37990-730f9509] found.
Track [ CRC ] Status
01 [e00c17d8] (4/4) Accurately ripped
02 [62861ae8] (4/4) Accurately ripped
03 [b73bc4f1] (4/4) Accurately ripped
04 [e4b148b0] (4/4) Accurately ripped
05 [d06ecb97] (4/4) Accurately ripped
06 [1aa93858] (4/4) Accurately ripped
07 [877a87a7] (4/4) Accurately ripped
08 [604364b6] (4/4) Accurately ripped
09 [164a5821] (4/4) Accurately ripped
Track Peak [ CRC32 ] [W/O NULL] [ LOG ]
-- 100.0 [F0569F6A] [74EE52A5]
01 92.6 [3FA277CB] [40738651] W/O NULL
02 87.1 [15E0918B] [48A43D21] W/O NULL
03 85.0 [6394AF3B] [E01937D3] W/O NULL
04 73.8 [1941B41E] [D4510FDE] W/O NULL
05 100.0 [3CE6FABD] [310FA834] W/O NULL
06 100.0 [6CEB0D75] [A9156913] W/O NULL
07 71.0 [3CC8F022] [5A88423B] W/O NULL
08 100.0 [D5B7F0A6] [019C1F5A] W/O NULL
09 86.4 [40770F54] [3F233E40] W/O NULL
 
Portrait 1997



Portrait 1997
Sam Rivers Tenor Saxophone, Soprano Saxophone, Flute, Piano, Voice, Music By, Liner Notes
FMP CD 082
time 1`16`33

01 Image
02 Silhouette
03 Reflection
04 Mirror
05 Vignette
06 Shadow
07 Visage
08 Profile
09 Cameo

 
.log
Exact Audio Copy V1.0 beta 1 from 15. November 2010
EAC extraction logfile from 27. April 2011, 20:49
Sam Rivers / Portrait
Used drive : TSSTcorpCD/DVDW SH-S182D Adapter: 1 ID: 0
Read mode : Secure
Utilize accurate stream : Yes
Defeat audio cache : Yes
Make use of C2 pointers : No
Read offset correction : 6
Overread into Lead-In and Lead-Out : No
Fill up missing offset samples with silence : Yes
Delete leading and trailing silent blocks : No
Null samples used in CRC calculations : Yes
Used interface : Native Win32 interface for Win NT & 2000
Gap handling : Appended to previous track
Used output format : User Defined Encoder
Selected bitrate : 128 kBit/s
Quality : High
Add ID3 tag : No
Command line compressor : C:\Program Files\Exact Audio Copy\Flac\flac.exe
Additional command line options : -V -8 -T "artist=%a" -T "title=%t" -T "album=%g" -T "date=%y" -T "tracknumber=%n" -T "genre=%m" %s
TOC of the extracted CD
Track | Start | Length | Start sector | End sector
---------------------------------------------------------
1 | 0:00.00 | 8:36.72 | 0 | 38771
2 | 8:36.72 | 8:47.65 | 38772 | 78361
3 | 17:24.62 | 6:32.03 | 78362 | 107764
4 | 23:56.65 | 8:25.07 | 107765 | 145646
5 | 32:21.72 | 8:18.40 | 145647 | 183036
6 | 40:40.37 | 8:53.23 | 183037 | 223034
7 | 49:33.60 | 5:45.00 | 223035 | 248909
8 | 55:18.60 | 8:59.62 | 248910 | 289396
9 | 64:18.47 | 12:14.33 | 289397 | 344479
Track 1
Filename F:\EACrips\Sam Rivers - 1997 - Portrait\01 - Image.wav
Pre-gap length 0:00:02.00
Peak level 97.8 %
Extraction speed 5.4 X
Track quality 100.0 %
Test CRC EA0D7B8D
Copy CRC EA0D7B8D
Track not present in AccurateRip database
Copy OK
Track 2
Filename F:\EACrips\Sam Rivers - 1997 - Portrait\02 - Silhouette.wav
Peak level 91.7 %
Extraction speed 6.4 X
Track quality 100.0 %
Test CRC 82984522
Copy CRC 82984522
Track not present in AccurateRip database
Copy OK
Track 3
Filename F:\EACrips\Sam Rivers - 1997 - Portrait\03 - Reflection.wav
Peak level 98.0 %
Extraction speed 6.9 X
Track quality 100.0 %
Test CRC BA02A348
Copy CRC BA02A348
Track not present in AccurateRip database
Copy OK
Track 4
Filename F:\EACrips\Sam Rivers - 1997 - Portrait\04 - Mirror.wav
Peak level 62.8 %
Extraction speed 7.6 X
Track quality 100.0 %
Test CRC BA95803E
Copy CRC BA95803E
Track not present in AccurateRip database
Copy OK
Track 5
Filename F:\EACrips\Sam Rivers - 1997 - Portrait\05 - Vignette.wav
Peak level 60.8 %
Extraction speed 8.2 X
Track quality 100.0 %
Test CRC EA82EB80
Copy CRC EA82EB80
Track not present in AccurateRip database
Copy OK
Track 6
Filename F:\EACrips\Sam Rivers - 1997 - Portrait\06 - Shadow.wav
Peak level 100.0 %
Extraction speed 8.3 X
Track quality 99.9 %
Test CRC 7897204C
Copy CRC 7897204C
Track not present in AccurateRip database
Copy OK
Track 7
Filename F:\EACrips\Sam Rivers - 1997 - Portrait\07 - Visage.wav
Peak level 72.6 %
Extraction speed 8.1 X
Track quality 99.9 %
Test CRC 1E9B688A
Copy CRC 1E9B688A
Track not present in AccurateRip database
Copy OK
Track 8
Filename F:\EACrips\Sam Rivers - 1997 - Portrait\08 - Profile.wav
Peak level 93.6 %
Extraction speed 9.7 X
Track quality 100.0 %
Test CRC 82FDD380
Copy CRC 82FDD380
Track not present in AccurateRip database
Copy OK
Track 9
Filename F:\EACrips\Sam Rivers - 1997 - Portrait\09 - Cameo.wav
Peak level 98.0 %
Extraction speed 10.5 X
Track quality 100.0 %
Test CRC CB826F83
Copy CRC CB826F83
Track not present in AccurateRip database
Copy OK
None of the tracks are present in the AccurateRip database
No errors occurred
End of status report
==== Log checksum 758FF34A5207E2D64C3D8D41B7444E737636AD61C79376E6777B04391618D42D ====
 
.cue
REM GENRE Jazz
REM DATE 1997
REM DISCID 7811F109
REM COMMENT "ExactAudioCopy v1.0b1"
FILE "01 - Image.wav" WAVE
TRACK 01 AUDIO
INDEX 01 00:00:00
FILE "02 - Silhouette.wav" WAVE
TRACK 02 AUDIO
INDEX 01 00:00:00
FILE "03 - Reflection.wav" WAVE
TRACK 03 AUDIO
INDEX 01 00:00:00
FILE "04 - Mirror.wav" WAVE
TRACK 04 AUDIO
INDEX 01 00:00:00
FILE "05 - Vignette.wav" WAVE
TRACK 05 AUDIO
INDEX 01 00:00:00
FILE "06 - Shadow.wav" WAVE
TRACK 06 AUDIO
INDEX 01 00:00:00
FILE "07 - Visage.wav" WAVE
TRACK 07 AUDIO
INDEX 01 00:00:00
FILE "08 - Profile.wav" WAVE
TRACK 08 AUDIO
INDEX 01 00:00:00
FILE "09 - Cameo.wav" WAVE
TRACK 09 AUDIO
INDEX 01 00:00:00
другие релизы
Any questions -> support@pro-jazz.com. По всем вопросам пишите -> support@pro-jazz.com
01:12
141
Нет комментариев. Ваш будет первым!