Вы используете незарегистрированную версию компонента "Вкладки"!

Поиск

(Free Jazz) Reggie Workman - Summit Conference (feat. Sam Rivers, Andrew Hill) - 1993, FLAC (image+.cue), lossless

(Free Jazz) Reggie Workman - Summit Conference (feat. Sam Rivers, Andrew Hill) - 1993, FLAC (image+.cue), lossless
Треклист:
Reggie Workman - Summit Conference (feat. Sam Rivers, Andrew Hill)
Жанр: Free Jazz
Год выпуска диска: 1993
Производитель диска: USA
Аудио кодек: FLAC
Тип рипа: image+.cue
Битрейт аудио: lossless
Продолжительность: 56.46
Трэклист:
01 - Encounter (John Carter) 07:45
02 - Estelle's Theme (Reggie Workman) 04:05
03 - Conversation (Sonelius Smith) 10:13
04 - Meteor (Sam Rivers) 05:34
05 - Solace (Sam Rivers) 04:19
06 - Summit Conference (Reggie Workman) 08:32
07 - Breath (Julian Priester) 06:54
08 - Gone (Andrew Hill) 09:21
Доп. информация: * Reggie Workman - bass
* Andrew Hill - piano
* Sam Rivers - tenor sax, soprano sax and flute
* Julian Priester - trombone
* Pheeroan akLaff - drums
Рип собственный, с родного диска
 
eac log
Exact Audio Copy V0.99 prebeta 5 from 4. May 2009
EAC extraction logfile from 27. March 2010, 19:43
Reggie Workman / Summit Conference
Used drive : TSSTcorpCDDVDW TS-L633C Adapter: 0 ID: 1
Read mode : Secure
Utilize accurate stream : Yes
Defeat audio cache : Yes
Make use of C2 pointers : No
Read offset correction : 6
Overread into Lead-In and Lead-Out : No
Fill up missing offset samples with silence : Yes
Delete leading and trailing silent blocks : No
Null samples used in CRC calculations : Yes
Used interface : Native Win32 interface for Win NT & 2000
Used output format : User Defined Encoder
Selected bitrate : 768 kBit/s
Quality : High
Add ID3 tag : No
Command line compressor : C:\Program Files (x86)\Exact Audio Copy\Flac\flac.exe
Additional command line options : -8 -V %s
TOC of the extracted CD
Track | Start | Length | Start sector | End sector
---------------------------------------------------------
1 | 0:00.00 | 7:45.27 | 0 | 34901
2 | 7:45.27 | 4:05.38 | 34902 | 53314
3 | 11:50.65 | 10:13.45 | 53315 | 99334
4 | 22:04.35 | 5:34.05 | 99335 | 124389
5 | 27:38.40 | 4:19.47 | 124390 | 143861
6 | 31:58.12 | 8:32.18 | 143862 | 182279
7 | 40:30.30 | 6:54.02 | 182280 | 213331
8 | 47:24.32 | 9:21.50 | 213332 | 255456
Range status and errors
Selected range
Filename C:\CDs\Reggie Workman - Summit Conference\Reggie Workman - Summit Conference.wav
Peak level 99.5 %
Range quality 100.0 %
Copy CRC 04AFF931
Copy OK
No errors occurred
AccurateRip summary
Track 1 accurately ripped (confidence 2) [FBAC9584]
Track 2 accurately ripped (confidence 2) [AFD280FD]
Track 3 accurately ripped (confidence 2) [DDA2A4E1]
Track 4 accurately ripped (confidence 2) [EE87AE4E]
Track 5 accurately ripped (confidence 2) [C0D36936]
Track 6 accurately ripped (confidence 2) [EBBDD69E]
Track 7 accurately ripped (confidence 2) [BFAE1513]
Track 8 accurately ripped (confidence 2) [8A34DBA5]
All tracks accurately ripped
End of status report
По всем вопросам пишите личное сообщение пользователю M0p94ok.
20:19
305
Нет комментариев. Ваш будет первым!