Вы используете незарегистрированную версию компонента "Вкладки"!

Поиск

(Free Jazz) Rashied Ali, Louie Belogenis, Wilber Morris - Live at Tonic - 2001, FLAC (tracks+.cue), lossless

(Free Jazz) Rashied Ali, Louie Belogenis, Wilber Morris - Live at Tonic - 2001, FLAC (tracks+.cue), lossless
Треклист:
Ali, Belogenis, Morris / Live at Tonic
Жанр: Free Jazz
Страна-производитель диска: Japan
Год издания: 2001
Издатель (лейбл): DIW Records
Номер по каталогу: DIW-940
Аудиокодек: FLAC (*.flac)
Тип рипа: tracks+.cue
Битрейт аудио: lossless
Продолжительность: 1:12:27
Источник (релизер): Max Monteiro
Наличие сканов в содержимом раздачи: нет
Треклист:
1. Invocation : Trane Is in the House (Louie Belogenis) 15:58
2. Elixir (Rashied Ali / Louie Belogenis / Wilber Morris) 9:56
3. Red Shifting (Rashied Ali / Louie Belogenis / Wilber Morris) 10:51
4. Norfolk Street Run Down (Rashied Ali / Louie Belogenis / Wilber Morris) 13:49
5. Heavenly Star (dedicated to Albert Ayler) (Louie Belogenis) 7:21
6. Brazilia (John Coltrane) 10:39
7. Spiritual (John Coltrane) 3:53
Recorded January 6, 2001 at Tonic.
Rashied Ali – Drums
Louie Belogenis – Tenor and Soprano Saxophones
Wilber Morris – Bass
 
Лог создания рипа
Exact Audio Copy V1.0 beta 3 from 29. August 2011
EAC extraction logfile from 13. June 2013, 9:33
Ali, Belogenis, Morris / Live at Tonic
Used drive : SlimtypeeNAU508 5 Adapter: 1 ID: 0
Read mode : Secure
Utilize accurate stream : Yes
Defeat audio cache : Yes
Make use of C2 pointers : No
Read offset correction : 6
Overread into Lead-In and Lead-Out : No
Fill up missing offset samples with silence : Yes
Delete leading and trailing silent blocks : No
Null samples used in CRC calculations : Yes
Used interface : Native Win32 interface for Win NT & 2000
Gap handling : Appended to previous track
Used output format : User Defined Encoder
Selected bitrate : 768 kBit/s
Quality : High
Add ID3 tag : No
Command line compressor : C:\Program Files (x86)\Exact Audio Copy\Flac\flac.exe
Additional command line options : -8 -V -T "ARTIST=%artist%" -T "TITLE=%title%" -T "ALBUM=%albumtitle%" -T "DATE=%year%" -T "TRACKNUMBER=%tracknr%" -T "GENRE=%genre%" -T "PERFORMER=%albuminterpret%" -T "COMPOSER=%composer%" %haslyrics%--tag-from-file=LYRICS="%lyricsfile%"%haslyrics% -T "ALBUMARTIST=%albumartist%" -T "DISCNUMBER=%cdnumber%" -T "TOTALDISCS=%totalcds%" -T "TOTALTRACKS=%numtracks%" -T "COMMENT=%comment%" %source% -o %dest%
TOC of the extracted CD
Track | Start | Length | Start sector | End sector
---------------------------------------------------------
1 | 0:00.00 | 15:57.42 | 0 | 71816
2 | 15:57.42 | 9:55.65 | 71817 | 116506
3 | 25:53.32 | 10:50.68 | 116507 | 165324
4 | 36:44.25 | 13:48.52 | 165325 | 227476
5 | 50:33.02 | 7:21.13 | 227477 | 260564
6 | 57:54.15 | 10:39.30 | 260565 | 308519
7 | 68:33.45 | 3:53.35 | 308520 | 326029
Track 1
Filename C:\EAC rips\01 - Invocation - Trane Is in the House.wav
Pre-gap length 0:00:02.00
Peak level 87.5 %
Extraction speed 3.0 X
Track quality 100.0 %
Test CRC 1E6D365F
Copy CRC 1E6D365F
Track not present in AccurateRip database
Copy OK
Track 2
Filename C:\EAC rips\02 - Elixir.wav
Peak level 83.1 %
Extraction speed 3.6 X
Track quality 100.0 %
Test CRC 66E466BA
Copy CRC 66E466BA
Track not present in AccurateRip database
Copy OK
Track 3
Filename C:\EAC rips\03 - Red Shifting.wav
Peak level 83.9 %
Extraction speed 4.1 X
Track quality 100.0 %
Test CRC B843DFF8
Copy CRC B843DFF8
Track not present in AccurateRip database
Copy OK
Track 4
Filename C:\EAC rips\04 - Norfolk Street Run Down.wav
Peak level 88.3 %
Extraction speed 4.3 X
Track quality 99.9 %
Test CRC 303D47A9
Copy CRC 303D47A9
Track not present in AccurateRip database
Copy OK
Track 5
Filename C:\EAC rips\05 - Heavenly Star.wav
Peak level 76.9 %
Extraction speed 4.8 X
Track quality 100.0 %
Test CRC 0F963223
Copy CRC 0F963223
Track not present in AccurateRip database
Copy OK
Track 6
Filename C:\EAC rips\06 - Brazilia.wav
Peak level 86.0 %
Extraction speed 4.7 X
Track quality 99.9 %
Test CRC ACC04800
Copy CRC ACC04800
Track not present in AccurateRip database
Copy OK
Track 7
Filename C:\EAC rips\07 - Spiritual.wav
Peak level 80.8 %
Extraction speed 4.8 X
Track quality 100.0 %
Test CRC 93EE9102
Copy CRC 93EE9102
Track not present in AccurateRip database
Copy OK
None of the tracks are present in the AccurateRip database
No errors occurred
End of status report
---- CUETools DB Plugin V2.1.4
[CTDB TOCID: v4O5GOnmUGpI0QEvHL8wLU5xPQE-] found
Submit result: v4O5GOnmUGpI0QEvHL8wLU5xPQE- has been confirmed
Track | CTDB Status
1 | (2/2) Accurately ripped
2 | (2/2) Accurately ripped
3 | (2/2) Accurately ripped
4 | (2/2) Accurately ripped
5 | (2/2) Accurately ripped
6 | (2/2) Accurately ripped
7 | (2/2) Accurately ripped
==== Log checksum 0731880281967089C83F8B04FF0152594C72976E9946F8ED4610F15783BE7829 ====
 
Содержание индексной карты (.CUE)
REM GENRE Jazz
REM DATE 2001
REM DISCID 5D10FB07
REM COMMENT "ExactAudioCopy v1.0b3"
PERFORMER "Ali, Belogenis, Morris "
TITLE "Live at Tonic"
FILE "01 - Invocation - Trane Is in the House.wav" WAVE
TRACK 01 AUDIO
TITLE "Invocation: Trane Is in the House"
PERFORMER "Ali, Belogenis, Morris "
INDEX 01 00:00:00
FILE "02 - Elixir.wav" WAVE
TRACK 02 AUDIO
TITLE "Elixir"
PERFORMER "Ali, Belogenis, Morris "
INDEX 01 00:00:00
FILE "03 - Red Shifting.wav" WAVE
TRACK 03 AUDIO
TITLE "Red Shifting"
PERFORMER "Ali, Belogenis, Morris "
INDEX 01 00:00:00
FILE "04 - Norfolk Street Run Down.wav" WAVE
TRACK 04 AUDIO
TITLE "Norfolk Street Run Down"
PERFORMER "Ali, Belogenis, Morris "
INDEX 01 00:00:00
FILE "05 - Heavenly Star.wav" WAVE
TRACK 05 AUDIO
TITLE "Heavenly Star"
PERFORMER "Ali, Belogenis, Morris "
INDEX 01 00:00:00
FILE "06 - Brazilia.wav" WAVE
TRACK 06 AUDIO
TITLE "Brazilia"
PERFORMER "Ali, Belogenis, Morris "
INDEX 01 00:00:00
FILE "07 - Spiritual.wav" WAVE
TRACK 07 AUDIO
TITLE "Spiritual"
PERFORMER "Ali, Belogenis, Morris "
INDEX 01 00:00:00
Any questions -> support@pro-jazz.com. По всем вопросам пишите -> support@pro-jazz.com
14:44
182
Нет комментариев. Ваш будет первым!