Вы используете незарегистрированную версию компонента "Вкладки"!

Поиск

(Free Jazz, Progressive Big Band) Either/Orchestra - The Brunt - 1994, FLAC (tracks+.cue), lossless

(Free Jazz, Progressive Big Band) Either/Orchestra - The Brunt - 1994, FLAC (tracks+.cue), lossless
Треклист:
Either/Orchestra / The Brunt
Жанр: Free Jazz, Progressive Big Band
Страна-производитель диска: US
Год издания: 1994
Издатель (лейбл): Accurate Records
Номер по каталогу: AC-3262
Страна: US
Аудиокодек: FLAC (*.flac)
Тип рипа: tracks+.cue
Битрейт аудио: lossless
Продолжительность: 65:18
Источник (релизер): свой фирменный диск
Наличие сканов в содержимом раздачи:
Треклист:
1. Pas De Trois 7:14
2. Notes On A Cliff 6:20
3. Hard Talk 9:28
4. Permit Blues 5:42
5. Jon's Dream 8:51
6. H.A.C. 7:58
7. The Brunt 7:59
8. Blues For New Orleans 7:37
9. Lay Lady Lay 3:46
 
Лог создания рипа
Exact Audio Copy V1.0 beta 3 from 29. August 2011
EAC extraction logfile from 4. April 2013, 19:59
Either/Orchestra / The Brunt
Used drive : PIONEER DVD-RW DVR-115D Adapter: 0 ID: 0
Read mode : Secure
Utilize accurate stream : Yes
Defeat audio cache : Yes
Make use of C2 pointers : No
Read offset correction : 48
Overread into Lead-In and Lead-Out : No
Fill up missing offset samples with silence : Yes
Delete leading and trailing silent blocks : No
Null samples used in CRC calculations : Yes
Used interface : Installed external ASPI interface
Gap handling : Appended to previous track
Used output format : User Defined Encoder
Selected bitrate : 896 kBit/s
Quality : High
Add ID3 tag : No
Command line compressor : C:\Program Files\Exact Audio Copy\FLAC\FLAC.EXE
Additional command line options : -6 -V -T "ARTIST=%artist%" -T "TITLE=%title%" -T "ALBUM=%albumtitle%" -T "DATE=%year%" -T "TRACKNUMBER=%tracknr%" -T "GENRE=%genre%" -T "COMMENT=%comment%" -T "BAND=%albuminterpret%" -T "COMPOSER=%composer%" %haslyrics%--tag-from-file=LYRICS="%lyricsfile%"%haslyrics% -T "DISCNUMBER=%cdnumber%" -T "TOTALDISCS=%totalcds%" -T "TOTALTRACKS=%numtracks%" %hascover%--picture="%coverfile%"%hascover% %source% -o %dest%
TOC of the extracted CD
Track | Start | Length | Start sector | End sector
---------------------------------------------------------
1 | 0:00.00 | 7:17.37 | 0 | 32811
2 | 7:17.37 | 6:23.00 | 32812 | 61536
3 | 13:40.37 | 9:31.38 | 61537 | 104399
4 | 23:12.00 | 5:46.37 | 104400 | 130386
5 | 28:58.37 | 8:54.38 | 130387 | 170474
6 | 37:53.00 | 7:58.00 | 170475 | 206324
7 | 45:51.00 | 7:59.50 | 206325 | 242299
8 | 53:50.50 | 7:39.62 | 242300 | 276786
9 | 61:30.37 | 3:47.43 | 276787 | 293854
Track 1
Filename D:\zzz\01 - Pas De Trois.wav
Pre-gap length 0:00:02.00
Peak level 100.0 %
Extraction speed 5.2 X
Track quality 100.0 %
Test CRC F9022816
Copy CRC F9022816
Accurately ripped (confidence 4) [10E667C0] (AR v1)
Copy OK
Track 2
Filename D:\zzz\02 - Notes On A Cliff.wav
Pre-gap length 0:00:01.17
Peak level 98.8 %
Extraction speed 5.9 X
Track quality 100.0 %
Test CRC AD5FCC57
Copy CRC AD5FCC57
Accurately ripped (confidence 5) [E740E95A] (AR v1)
Copy OK
Track 3
Filename D:\zzz\03 - Hard Talk.wav
Pre-gap length 0:00:01.50
Peak level 98.8 %
Extraction speed 6.8 X
Track quality 100.0 %
Test CRC 7E5198A2
Copy CRC 7E5198A2
Accurately ripped (confidence 5) [5BBD9196] (AR v1)
Copy OK
Track 4
Filename D:\zzz\04 - Permit Blues.wav
Pre-gap length 0:00:01.73
Peak level 98.8 %
Extraction speed 7.1 X
Track quality 100.0 %
Test CRC A4393AEB
Copy CRC A4393AEB
Accurately ripped (confidence 5) [E74D4090] (AR v1)
Copy OK
Track 5
Filename D:\zzz\05 - Jon's Dream.wav
Pre-gap length 0:00:02.17
Peak level 98.8 %
Extraction speed 7.4 X
Track quality 99.9 %
Test CRC AF52BD1D
Copy CRC AF52BD1D
Accurately ripped (confidence 5) [D32B68FC] (AR v1)
Copy OK
Track 6
Filename D:\zzz\06 - H.A.C..wav
Pre-gap length 0:00:01.30
Peak level 98.8 %
Extraction speed 8.3 X
Track quality 100.0 %
Test CRC 86027A08
Copy CRC 86027A08
Accurately ripped (confidence 5) [97179A82] (AR v1)
Copy OK
Track 7
Filename D:\zzz\07 - The Brunt.wav
Peak level 98.8 %
Extraction speed 8.7 X
Track quality 100.0 %
Test CRC ED22BE90
Copy CRC ED22BE90
Accurately ripped (confidence 5) [E20B307A] (AR v1)
Copy OK
Track 8
Filename D:\zzz\08 - Blues For New Orleans.wav
Peak level 98.8 %
Extraction speed 8.5 X
Track quality 99.9 %
Test CRC 61807BFA
Copy CRC 61807BFA
Accurately ripped (confidence 5) [5F2037D5] (AR v1)
Copy OK
Track 9
Filename D:\zzz\09 - Lay Lady Lay.wav
Pre-gap length 0:00:01.37
Peak level 94.4 %
Extraction speed 8.8 X
Track quality 100.0 %
Test CRC BB3C4B2A
Copy CRC BB3C4B2A
Accurately ripped (confidence 5) [CE3140B0] (AR v1)
Copy OK
All tracks accurately ripped
No errors occurred
End of status report
==== Log checksum 8C2674B01463765C5FAD505ECEC33F339EB62BF255E991A45EDB30D387BD3D00 ====
 
Содержание индексной карты (.CUE)
REM GENRE Jazz
REM DATE 1994
REM DISCID 7A0F4E09
REM COMMENT "ExactAudioCopy v1.0b3"
PERFORMER "Either/Orchestra"
TITLE "The Brunt"
FILE "01 - Pas De Trois.wav" WAVE
TRACK 01 AUDIO
TITLE "Pas De Trois"
PERFORMER "Either/Orchestra"
INDEX 01 00:00:00
TRACK 02 AUDIO
TITLE "Notes On A Cliff"
PERFORMER "Either/Orchestra"
INDEX 00 07:16:20
FILE "02 - Notes On A Cliff.wav" WAVE
INDEX 01 00:00:00
TRACK 03 AUDIO
TITLE "Hard Talk"
PERFORMER "Either/Orchestra"
INDEX 00 06:21:25
FILE "03 - Hard Talk.wav" WAVE
INDEX 01 00:00:00
TRACK 04 AUDIO
TITLE "Permit Blues"
PERFORMER "Either/Orchestra"
INDEX 00 09:29:40
FILE "04 - Permit Blues.wav" WAVE
INDEX 01 00:00:00
TRACK 05 AUDIO
TITLE "Jon's Dream"
PERFORMER "Either/Orchestra"
INDEX 00 05:44:20
FILE "05 - Jon's Dream.wav" WAVE
INDEX 01 00:00:00
TRACK 06 AUDIO
TITLE "H.A.C."
PERFORMER "Either/Orchestra"
INDEX 00 08:53:08
FILE "06 - H.A.C..wav" WAVE
INDEX 01 00:00:00
FILE "07 - The Brunt.wav" WAVE
TRACK 07 AUDIO
TITLE "The Brunt"
PERFORMER "Either/Orchestra"
INDEX 01 00:00:00
FILE "08 - Blues For New Orleans.wav" WAVE
TRACK 08 AUDIO
TITLE "Blues For New Orleans"
PERFORMER "Either/Orchestra"
INDEX 01 00:00:00
TRACK 09 AUDIO
TITLE "Lay Lady Lay"
PERFORMER "Either/Orchestra"
INDEX 00 07:38:25
FILE "09 - Lay Lady Lay.wav" WAVE
INDEX 01 00:00:00
 
Лог проверки качества
d:\>d:\aucdtect -d/-m0 d:\zzz\*.wav
auCDtect: CD records authenticity detector, version 0.8.2
Copyright (c) 2004 Oleg Berngardt. All rights reserved.
Copyright (c) 2004 Alexander Djourik. All rights reserved.
------------------------------------------------------------
Processing file: [01. Pas De Trois.wav]
------------------------------------------------------------
This track looks like CDDA with probability 100%
------------------------------------------------------------
Processing file: [02. Notes On A Cliff.wav]
------------------------------------------------------------
This track looks like CDDA with probability 100%
------------------------------------------------------------
Processing file: [03. Hard Talk.wav]
------------------------------------------------------------
This track looks like CDDA with probability 100%
------------------------------------------------------------
Processing file: [04. Permit Blues.wav]
------------------------------------------------------------
This track looks like CDDA with probability 100%
------------------------------------------------------------
Processing file: [05. Jon's Dream.wav]
------------------------------------------------------------
This track looks like CDDA with probability 100%
------------------------------------------------------------
Processing file: [06. H.A.C..wav]
------------------------------------------------------------
This track looks like CDDA with probability 100%
------------------------------------------------------------
Processing file: [07. The Brunt.wav]
------------------------------------------------------------
This track looks like CDDA with probability 100%
------------------------------------------------------------
Processing file: [08. Blues For New Orleans.wav]
------------------------------------------------------------
This track looks like CDDA with probability 100%
------------------------------------------------------------
Processing file: [09. Lay Lady Lay.wav]
------------------------------------------------------------
This track looks like CDDA with probability 100%
------------------------------------------------------------
Final Conclusion:
------------------------------------------------------------
These tracks looks like CDDA with probability 100%
Доп. информация:
 
AMG Review
At the time of their formation the Either/Orchestra asked, "Why should a seven-horn band only limit themselves in ensembles to playing three basic parts (for trumpets, trombones, and reeds) when having seven parts would be much more exciting?" Gradual tempo changes within a song; the use of emotional outbursts, humor, and group improvising; and the ability to look both backwards and forwards stylistically at the same time are qualities that make the Either/Orchestra a logical outgrowth of Charles Mingus' innovations. This CD is full of extroverted solos, wild group interplay, hard-swinging and unpredictable performances, and quite a bit of variety. Even with the many strong solos, it is the occasionally overcrowded ensembles of the stimulating group that stick in one's mind.
 
Состав
Alto Saxophone, Bass Clarinet, Clarinet – Andrew D'Angelo
Baritone Saxophone – Charlie Kohlhase
Bass – John Turner
Drums – Matt Wilson
Piano, Synthesizer – Chris Taylor
Producer, Mixed By, Tenor Saxophone, Soprano Saxophone – Russ Gershon
Trombone – Dan Fox, Russell Jewell
Trumpet, Flugelhorn – John Carlson, Tom Halter
Any questions -> support@pro-jazz.com. По всем вопросам пишите -> support@pro-jazz.com
10:38
227
Нет комментариев. Ваш будет первым!