Вы используете незарегистрированную версию компонента "Вкладки"!

Поиск

(Free Jazz, Post Bop, Contemporary Jazz) The Vandermark 5 (Dave Rempis, Jeb Bishop, Kent Kessler, Tim Daisy) - Airports for Light - 2003, FLAC (tracks+.cue) lossless

Треклист:
The Vandermark 5 (Dave Rempis, Jeb Bishop, Kent Kessler, Tim Daisy) / Airports for Light
Жанр: Free Jazz, Post Bop, Contemporary Jazz
Страна-производитель диска: US
Год издания диска: 2003
Издатель (лейбл): Atavistic
Номер по каталогу: ALP140
Аудио кодек: FLAC (*.flac)
Тип рипа: tracks+.cue
Битрейт аудио: lossless
Продолжительность: 69:33
Источник (релизер): what.cd (knkwzrd)
Наличие сканов в содержимом раздачи: нет
Треклист:
1 Cruz Campo (for Gerhard Richter) 8:58
2 Staircase (for John Cassavetes) 8:23
3 7 Plus 5 (for Fredrik Ljungkvist) 7:05
4 Money Down (for Rahsaan Roland Kirk) 5:33
5 Both Sides (for Budd Johnson) 8:06
6 Initials (for Jean Tinguely) 5:05
7 Other Cuts (for Curtis Mayfield) 11:12
8 Long Term Fool (for Otis Redding) 8:50
9 Confluence (for Sonny Rollins) 6:16
 
Лог создания рипа
X Lossless Decoder version 20091230 (115.2)
XLD extraction logfile from 2010-01-09 16:52:44 -0600
Vandermark 5 / ~airports for light~
Used drive : MATSHITA DVD-R UJ-875 (revision DB09)
Use cdparanoia mode : YES (CDParanoia III 10.2 engine)
Disable audio cache : OK for the drive with cache less than 2750KB
Make use of C2 pointers : NO
Read offset correction : 102
Max retry count : 100
TOC of the extracted CD
Track | Start | Length | Start sector | End sector
---------------------------------------------------------
1 | 00:00:00 | 08:58:41 | 0 | 40390
2 | 08:58:41 | 08:23:63 | 40391 | 78178
3 | 17:22:29 | 07:05:41 | 78179 | 110094
4 | 24:27:70 | 05:33:69 | 110095 | 135138
5 | 30:01:64 | 08:06:66 | 135139 | 171654
6 | 38:08:55 | 05:05:16 | 171655 | 194545
7 | 43:13:71 | 11:12:28 | 194546 | 244973
8 | 54:26:24 | 08:50:10 | 244974 | 284733
9 | 63:16:34 | 06:16:26 | 284734 | 312959
All Tracks
Album gain : -5.97 dB
Peak : 0.988647
Track 01
Filename : /Users/Home/Music/FLACS/01 - Cruz Campo (for Gerhard Richter).flac
Pre-gap length : 00:02:00
Track gain : -6.71 dB
Peak : 0.988617
CRC32 hash (test run) : 7E7EC227
CRC32 hash : 7E7EC227
CRC32 hash (skip zero) : 2E17D8E8
AccurateRip signature : 6A0EC7C7
->Accurately ripped! (confidence 1)
Statistics
Read error : 0
Skipped (treated as error) : 0
Edge jitter error (maybe fixed) : 0
Atom jitter error (maybe fixed) : 0
Drift error (maybe fixed) : 0
Dropped bytes error (maybe fixed) : 0
Duplicated bytes error (maybe fixed) : 0
Inconsistency in error sectors : 0
Track 02
Filename : /Users/Home/Music/FLACS/02 - Staircase (for John Cassavetes).flac
Track gain : -2.20 dB
Peak : 0.988586
CRC32 hash (test run) : 8D69B1E4
CRC32 hash : 8D69B1E4
CRC32 hash (skip zero) : 80D2C2C3
AccurateRip signature : AFA8A78D
->Accurately ripped! (confidence 1)
Statistics
Read error : 0
Skipped (treated as error) : 0
Edge jitter error (maybe fixed) : 0
Atom jitter error (maybe fixed) : 0
Drift error (maybe fixed) : 0
Dropped bytes error (maybe fixed) : 0
Duplicated bytes error (maybe fixed) : 0
Inconsistency in error sectors : 0
Track 03
Filename : /Users/Home/Music/FLACS/03 - Plus (for Fredrik Ljungkvist).flac
Track gain : -2.52 dB
Peak : 0.988586
CRC32 hash (test run) : A4C65E71
CRC32 hash : A4C65E71
CRC32 hash (skip zero) : 6FF3714F
AccurateRip signature : 848F1CBC
->Accurately ripped! (confidence 1)
Statistics
Read error : 0
Skipped (treated as error) : 0
Edge jitter error (maybe fixed) : 0
Atom jitter error (maybe fixed) : 0
Drift error (maybe fixed) : 0
Dropped bytes error (maybe fixed) : 0
Duplicated bytes error (maybe fixed) : 0
Inconsistency in error sectors : 0
Track 04
Filename : /Users/Home/Music/FLACS/04 - Money Down (for Rahsaan Roland Kirk).flac
Track gain : -7.39 dB
Peak : 0.988647
CRC32 hash (test run) : F557055E
CRC32 hash : F557055E
CRC32 hash (skip zero) : 7D4BF6E1
AccurateRip signature : 5D2CB409
->Accurately ripped! (confidence 1)
Statistics
Read error : 0
Skipped (treated as error) : 0
Edge jitter error (maybe fixed) : 0
Atom jitter error (maybe fixed) : 0
Drift error (maybe fixed) : 0
Dropped bytes error (maybe fixed) : 0
Duplicated bytes error (maybe fixed) : 0
Inconsistency in error sectors : 0
Track 05
Filename : /Users/Home/Music/FLACS/05 - Both Sides (for Budd Johnson).flac
Track gain : -5.68 dB
Peak : 0.988617
CRC32 hash (test run) : 6DDA2F90
CRC32 hash : 6DDA2F90
CRC32 hash (skip zero) : 28D44527
AccurateRip signature : D6C992A5
->Accurately ripped! (confidence 1)
Statistics
Read error : 0
Skipped (treated as error) : 0
Edge jitter error (maybe fixed) : 0
Atom jitter error (maybe fixed) : 0
Drift error (maybe fixed) : 0
Dropped bytes error (maybe fixed) : 0
Duplicated bytes error (maybe fixed) : 0
Inconsistency in error sectors : 0
Track 06
Filename : /Users/Home/Music/FLACS/06 - Initials (for Jean Tinguely).flac
Track gain : -6.60 dB
Peak : 0.988617
CRC32 hash (test run) : BE782589
CRC32 hash : BE782589
CRC32 hash (skip zero) : 168E09DB
AccurateRip signature : B5E00D87
->Accurately ripped! (confidence 1)
Statistics
Read error : 0
Skipped (treated as error) : 0
Edge jitter error (maybe fixed) : 0
Atom jitter error (maybe fixed) : 0
Drift error (maybe fixed) : 0
Dropped bytes error (maybe fixed) : 0
Duplicated bytes error (maybe fixed) : 0
Inconsistency in error sectors : 0
Track 07
Filename : /Users/Home/Music/FLACS/07 - Other Cuts (for Curtis Mayfield).flac
Track gain : -6.01 dB
Peak : 0.988647
CRC32 hash (test run) : 049CA0F6
CRC32 hash : 049CA0F6
CRC32 hash (skip zero) : 7D48D9D2
AccurateRip signature : 6085F77A
->Accurately ripped! (confidence 1)
Statistics
Read error : 0
Skipped (treated as error) : 0
Edge jitter error (maybe fixed) : 0
Atom jitter error (maybe fixed) : 0
Drift error (maybe fixed) : 0
Dropped bytes error (maybe fixed) : 0
Duplicated bytes error (maybe fixed) : 0
Inconsistency in error sectors : 0
Track 08
Filename : /Users/Home/Music/FLACS/08 - Long Term Fool (for Otis Redding).flac
Track gain : -3.38 dB
Peak : 0.978424
CRC32 hash (test run) : 85451F76
CRC32 hash : 85451F76
CRC32 hash (skip zero) : FAEDEC32
AccurateRip signature : 1FEB8617
->Accurately ripped! (confidence 1)
Statistics
Read error : 0
Skipped (treated as error) : 0
Edge jitter error (maybe fixed) : 0
Atom jitter error (maybe fixed) : 0
Drift error (maybe fixed) : 0
Dropped bytes error (maybe fixed) : 0
Duplicated bytes error (maybe fixed) : 0
Inconsistency in error sectors : 0
Track 09
Filename : /Users/Home/Music/FLACS/09 - Confluence (for Sonny Rollins).flac
Track gain : -6.68 dB
Peak : 0.988617
CRC32 hash (test run) : 00086CB9
CRC32 hash : 00086CB9
CRC32 hash (skip zero) : C87AE01E
AccurateRip signature : CED02916
->Accurately ripped! (confidence 1)
Statistics
Read error : 0
Skipped (treated as error) : 0
Edge jitter error (maybe fixed) : 0
Atom jitter error (maybe fixed) : 0
Drift error (maybe fixed) : 0
Dropped bytes error (maybe fixed) : 0
Duplicated bytes error (maybe fixed) : 0
Inconsistency in error sectors : 0
No errors occurred
End of status report
 
Содержание индексной карты (.CUE)
TITLE "~airports for light~"
PERFORMER "Vandermark 5"
REM GENRE "Jazz"
REM DATE 2002
FILE "01 - Cruz Campo (for Gerhard Richter).wav" WAVE
TRACK 01 AUDIO
TITLE "Cruz Campo (for Gerhard Richter)"
INDEX 01 00:00:00
FILE "02 - Staircase (for John Cassavetes).wav" WAVE
TRACK 02 AUDIO
TITLE "Staircase (for John Cassavetes)"
INDEX 01 00:00:00
FILE "03 - Plus (for Fredrik Ljungkvist).wav" WAVE
TRACK 03 AUDIO
TITLE "Plus (for Fredrik Ljungkvist)"
INDEX 01 00:00:00
FILE "04 - Money Down (for Rahsaan Roland Kirk).wav" WAVE
TRACK 04 AUDIO
TITLE "Money Down (for Rahsaan Roland Kirk)"
INDEX 01 00:00:00
FILE "05 - Both Sides (for Budd Johnson).wav" WAVE
TRACK 05 AUDIO
TITLE "Both Sides (for Budd Johnson)"
INDEX 01 00:00:00
FILE "06 - Initials (for Jean Tinguely).wav" WAVE
TRACK 06 AUDIO
TITLE "Initials (for Jean Tinguely)"
INDEX 01 00:00:00
FILE "07 - Other Cuts (for Curtis Mayfield).wav" WAVE
TRACK 07 AUDIO
TITLE "Other Cuts (for Curtis Mayfield)"
INDEX 01 00:00:00
FILE "08 - Long Term Fool (for Otis Redding).wav" WAVE
TRACK 08 AUDIO
TITLE "Long Term Fool (for Otis Redding)"
INDEX 01 00:00:00
FILE "09 - Confluence (for Sonny Rollins).wav" WAVE
TRACK 09 AUDIO
TITLE "Confluence (for Sonny Rollins)"
INDEX 01 00:00:00
Доп. информация:
Recorded August 22 and 23, 2002 at Semaphore Studios, Chicago.
Mastered at Golden Mastering, Ventura.
 
Состав
Bass – Kent Kessler
Composed By – Ken Vandermark
Drums – Tim Daisy
Mastered By – John Golden
Mixed By – Bob Weston, Vandermark 5, The*
Recorded By – Bob Weston*
Reeds – Ken Vandermark
Saxophone – Dave Rempis
Trombone – Jeb Bishop
По всем вопросам пишите личное сообщение пользователю M0p94ok.
10:58
149
Нет комментариев. Ваш будет первым!