Вы используете незарегистрированную версию компонента "Вкладки"!

Поиск

(Free Jazz, Post Bop) [CD] Masahiko Satoh Trio - Transformation '69/'71 - 2011 (Japan Mini-LP Edition), FLAC (tracks+.cue), lossless

(Free Jazz, Post Bop) [CD] Masahiko Satoh Trio - Transformation '69/'71 - 2011 (Japan Mini-LP Edition), FLAC (tracks+.cue), lossless
Треклист:
Masahiko Satoh Trio - Transformation '69/'71
Жанр: Free Jazz, Post Bop
Носитель: CD
Страна-производитель диска (релиза): Япония
Год издания: 2011
Издатель (лейбл): Think! Records (Deep Jazz Reality)
Номер по каталогу: DTHK-002
Аудиокодек: FLAC (*.flac)
Тип рипа: tracks+.cue
Битрейт аудио: lossless
Продолжительность: 34:00
Источник (релизер): wikieup (what)
Наличие сканов в содержимом раздачи: нет
Треклист:
01. Tigris (Satoh) - 7:15
02. On a Clear Day (You Can See Forever) (Lane) - 7:51
03. Transformation Part I (Satoh-Arakawa-Togashi) - 15:13
04. Transformation Part II (Satoh-Arakawa-Togashi) - 3:41
Состав:
Masahiko Satoh - piano
Yasuo Arakawa - bass
Masahiko Togashi - drums, percussion
Recorded on March 17-20, 1969 (#1,2) and March 2, 1971 (#3,4)
 
Лог создания рипа
Exact Audio Copy V1.0 beta 3 from 29. August 2011
EAC extraction logfile from 23. May 2013, 15:06
Masahiko Sato Trio / Transformation '69/'71 [2011 Reissue]
Used drive : TSSTcorpDVD-ROM TS-U333B Adapter: 0 ID: 1
Read mode : Secure
Utilize accurate stream : Yes
Defeat audio cache : Yes
Make use of C2 pointers : No
Read offset correction : 6
Overread into Lead-In and Lead-Out : No
Fill up missing offset samples with silence : Yes
Delete leading and trailing silent blocks : No
Null samples used in CRC calculations : Yes
Used interface : Native Win32 interface for Win NT & 2000
Gap handling : Appended to previous track
Used output format : User Defined Encoder
Selected bitrate : 1024 kBit/s
Quality : High
Add ID3 tag : No
Command line compressor : C:\Program Files\Exact Audio Copy\Flac\flac.exe
Additional command line options : -8 -V -T "ARTIST=%artist%" -T "TITLE=%title%" -T "ALBUM=%albumtitle%" -T "DATE=%year%" -T "TRACKNUMBER=%tracknr%" -T "GENRE=%genre%" -T "PERFORMER=%albuminterpret%" -T "COMPOSER=%composer%" %haslyrics%--tag-from-file=LYRICS="%lyricsfile%"%haslyrics% -T "ALBUMARTIST=%albumartist%" -T "DISCNUMBER=%cdnumber%" -T "TOTALDISCS=%totalcds%" -T "TOTALTRACKS=%numtracks%" -T "COMMENT=%comment%" %source% -o %dest%
TOC of the extracted CD
Track | Start | Length | Start sector | End sector
---------------------------------------------------------
1 | 0:00.00 | 7:14.58 | 0 | 32607
2 | 7:14.58 | 7:51.32 | 32608 | 67964
3 | 15:06.15 | 15:12.67 | 67965 | 136431
4 | 30:19.07 | 3:41.17 | 136432 | 153023
Track 1
Filename C:\EAC Rips\01 - Tigris.wav
Pre-gap length 0:00:02.00
Peak level 97.7 %
Extraction speed 2.9 X
Track quality 100.0 %
Test CRC 1173661A
Copy CRC 1173661A
Track not present in AccurateRip database
Copy OK
Track 2
Filename C:\EAC Rips\02 - On A Clear Day (You Can See Forever).wav
Pre-gap length 0:00:03.28
Peak level 97.7 %
Extraction speed 3.0 X
Track quality 99.9 %
Test CRC AF34DCFE
Copy CRC AF34DCFE
Track not present in AccurateRip database
Copy OK
Track 3
Filename C:\EAC Rips\03 - Transformation Part I.wav
Pre-gap length 0:00:03.64
Peak level 97.7 %
Extraction speed 4.1 X
Track quality 100.0 %
Test CRC E18027F6
Copy CRC E18027F6
Track not present in AccurateRip database
Copy OK
Track 4
Filename C:\EAC Rips\04 - Transformation Part II.wav
Pre-gap length 0:00:02.89
Peak level 97.7 %
Extraction speed 4.1 X
Track quality 100.0 %
Test CRC F169A3FD
Copy CRC F169A3FD
Track not present in AccurateRip database
Copy OK
None of the tracks are present in the AccurateRip database
No errors occurred
End of status report
==== Log checksum 45AC73BA6A7802B27B480F44BB837C6658DD93C377A4EC1B969B62AC7972A2D6 ====
 
Содержание индексной карты (.CUE)
REM GENRE Jazz
REM DATE 1971
REM DISCID 2C07F804
REM COMMENT "ExactAudioCopy v1.0b3"
PERFORMER "Masahiko Satoh"
TITLE "Transformation '69/'71"
FILE "01 - Tigris.wav" WAVE
TRACK 01 AUDIO
TITLE "Tigris"
PERFORMER "Masahiko Satoh"
INDEX 01 00:00:00
TRACK 02 AUDIO
TITLE "On a Clear Day (You Can See Forever)"
PERFORMER "Masahiko Satoh"
INDEX 00 07:11:37
FILE "02 - On a Clear Day (You Can See Forever).wav" WAVE
INDEX 01 00:00:00
TRACK 03 AUDIO
TITLE "Transformation Part I"
PERFORMER "Masahiko Satoh"
INDEX 00 07:47:59
FILE "03 - Transformation Part I.wav" WAVE
INDEX 01 00:00:00
TRACK 04 AUDIO
TITLE "Transformation Part II"
PERFORMER "Masahiko Satoh"
INDEX 00 15:10:00
FILE "04 - Transformation Part II.wav" WAVE
INDEX 01 00:00:00
 
Отчет CUETools
[CUETools log; Date: 25.04.2015 1:26:00; Version: 2.1.5]
[CTDB TOCID: EleunpT2xpGiqCp11VPzg.EsU.I-] found.
Track | CTDB Status
1 | (1/1) Accurately ripped
2 | (1/1) Accurately ripped
3 | (1/1) Accurately ripped
4 | (1/1) Differs in 4212 samples @03:40:73-03:41:02
[AccurateRip ID: 0005f38d-00181bb8-2c07f804] found.
Track [ CRC | V2 ] Status
01 [9e00c515|774ee274] (0+1/1) Accurately ripped
02 [f8943733|65a215ec] (0+1/1) Accurately ripped
03 [798e4d76|6225e51c] (0+1/1) Accurately ripped
04 [7c24716c|3907fada] (0+1/1) Accurately ripped
Track Peak [ CRC32 ] [W/O NULL] [ LOG ]
-- 97,7 [0F0F2A67] [51C9E169]
01 97,7 [1173661A] [0C9E097A] CRC32
02 97,7 [AF34DCFE] [5933B400] CRC32
03 97,7 [E18027F6] [DF0ED13C] CRC32
04 97,7 [F169A3FD] [862E2942] CRC32
По всем вопросам пишите личное сообщение пользователю M0p94ok.
12:57
125
Нет комментариев. Ваш будет первым!