Поиск

(free jazz, post bop ) [CD] DKV Trio - Live in Wels & Chicago, 1998 , 2 CD, FLAC (tracks+.cue), lossless

(free jazz, post bop ) [CD] DKV Trio - Live in Wels & Chicago, 1998 , 2 CD, FLAC (tracks+.cue), lossless
Треклист:


DKV Trio - Live in Wels & Chicago, 1998

Жанр: free jazz, post bop
Год выпуска: 1999
Издатель (лейбл):Okka Disk / OD12030
Формат: FLAC (tracks+.cue)
Битрейт аудио: lossless
Продолжительность: 1`57`13
Источник: what.cd, 6060842
Bass – Kent Kessler
Drums – Hamid Drake
Reeds – Ken Vandermark

Wels
1-1 Part 1 7:12
1-2 Part 2 4:58
1-3 Part 3 13:53
1-4 Part 4 4:17
1-5 Part 5 9:22
1-6 Memory Sketch (For Don Cherry) 4:10

 
.log
X Lossless Decoder version 20130720 (144.0)
XLD extraction logfile from 2013-08-15 13:28:38 +0400
DKV Trio / Live in Wels & Chicago, 1998
Used drive : HL-DT-ST DVDRW GX30N (revision RP09)
Media type : Pressed CD
Ripper mode : XLD Secure Ripper
Disable audio cache : OK for the drive with a cache less than 1375KiB
Make use of C2 pointers : NO
Read offset correction : 6
Max retry count : 100
Gap status : Analyzed, Appended (except HTOA)
TOC of the extracted CD
Track | Start | Length | Start sector | End sector
---------------------------------------------------------
1 | 00:00:00 | 07:12:56 | 0 | 32455
2 | 07:12:56 | 04:58:27 | 32456 | 54832
3 | 12:11:08 | 13:53:32 | 54833 | 117339
4 | 26:04:40 | 04:17:10 | 117340 | 136624
5 | 30:21:50 | 09:23:22 | 136625 | 178871
6 | 39:44:72 | 04:10:26 | 178872 | 197647
List of alternate offset correction values
# | Absolute | Relative | Confidence
------------------------------------------
1 | 1 | -5 | 6
AccurateRip Summary (DiscID: 000af3ce-003a92c9-4d0a4b06)
Track 01 : OK (v1, confidence 2/8)
Track 02 : OK (v1, confidence 2/8)
Track 03 : OK (v1, confidence 2/8)
Track 04 : OK (v1, confidence 2/8)
Track 05 : OK (v1, confidence 2/8)
Track 06 : OK (v1, confidence 2/8)
->All tracks accurately ripped.
All Tracks
Album gain : -6.50 dB
Peak : 0.906250
Statistics
Read error : 0
Jitter error (maybe fixed) : 0
Retry sector count : 0
Damaged sector count : 0
Track 01
Filename : /Users/anch/Music/FLAC/DKV Trio - 1999 - Live in Wels & Chicago, 1998 [MP3 320]/01/01 - Complete Communion Suite, Part 1.mp3
/Users/anch/Music/FLAC/DKV Trio - 1999 - Live in Wels & Chicago, 1998 [MP3 V0]/01/01 - Complete Communion Suite, Part 1.mp3
/Users/anch/Music/FLAC/DKV Trio - 1999 - Live in Wels & Chicago, 1998 [FLAC]/01/01 - Complete Communion Suite, Part 1.flac
Pre-gap length : 00:02:00
Track gain : -6.74 dB
Peak : 0.867767
CRC32 hash (test run) : CF12CAA7
CRC32 hash : CF12CAA7
CRC32 hash (skip zero) : D1D1BCA5
AccurateRip v1 signature : A2E01725
AccurateRip v2 signature : AB3C4EDF
->Accurately ripped (v1, confidence 2/8)
Statistics
Read error : 0
Jitter error (maybe fixed) : 0
Retry sector count : 0
Damaged sector count : 0
Track 02
Filename : /Users/anch/Music/FLAC/DKV Trio - 1999 - Live in Wels & Chicago, 1998 [MP3 320]/01/02 - Complete Communion Suite, Part 2.mp3
/Users/anch/Music/FLAC/DKV Trio - 1999 - Live in Wels & Chicago, 1998 [MP3 V0]/01/02 - Complete Communion Suite, Part 2.mp3
/Users/anch/Music/FLAC/DKV Trio - 1999 - Live in Wels & Chicago, 1998 [FLAC]/01/02 - Complete Communion Suite, Part 2.flac
Track gain : -6.91 dB
Peak : 0.873322
CRC32 hash (test run) : E01F9CF1
CRC32 hash : E01F9CF1
CRC32 hash (skip zero) : C148E78D
AccurateRip v1 signature : 472EA5E3
AccurateRip v2 signature : 1ECAF54C
->Accurately ripped (v1, confidence 2/8)
Statistics
Read error : 0
Jitter error (maybe fixed) : 0
Retry sector count : 0
Damaged sector count : 0
Track 03
Filename : /Users/anch/Music/FLAC/DKV Trio - 1999 - Live in Wels & Chicago, 1998 [MP3 320]/01/03 - Complete Communion Suite, Part 3.mp3
/Users/anch/Music/FLAC/DKV Trio - 1999 - Live in Wels & Chicago, 1998 [MP3 V0]/01/03 - Complete Communion Suite, Part 3.mp3
/Users/anch/Music/FLAC/DKV Trio - 1999 - Live in Wels & Chicago, 1998 [FLAC]/01/03 - Complete Communion Suite, Part 3.flac
Track gain : -7.00 dB
Peak : 0.906250
CRC32 hash (test run) : E2166735
CRC32 hash : E2166735
CRC32 hash (skip zero) : 9B310966
AccurateRip v1 signature : 1A942296
AccurateRip v2 signature : B6F80C25
->Accurately ripped (v1, confidence 2/8)
Statistics
Read error : 0
Jitter error (maybe fixed) : 0
Retry sector count : 0
Damaged sector count : 0
Track 04
Filename : /Users/anch/Music/FLAC/DKV Trio - 1999 - Live in Wels & Chicago, 1998 [MP3 320]/01/04 - Complete Communion Suite, Part 4.mp3
/Users/anch/Music/FLAC/DKV Trio - 1999 - Live in Wels & Chicago, 1998 [MP3 V0]/01/04 - Complete Communion Suite, Part 4.mp3
/Users/anch/Music/FLAC/DKV Trio - 1999 - Live in Wels & Chicago, 1998 [FLAC]/01/04 - Complete Communion Suite, Part 4.flac
Track gain : 0.94 dB
Peak : 0.834137
CRC32 hash (test run) : 0778E014
CRC32 hash : 0778E014
CRC32 hash (skip zero) : F529556F
AccurateRip v1 signature : 517845BB
AccurateRip v2 signature : 18F4BCBE
->Accurately ripped (v1, confidence 2/8)
Statistics
Read error : 0
Jitter error (maybe fixed) : 0
Retry sector count : 0
Damaged sector count : 0
Track 05
Filename : /Users/anch/Music/FLAC/DKV Trio - 1999 - Live in Wels & Chicago, 1998 [MP3 320]/01/05 - Complete Communion Suite, Part 5.mp3
/Users/anch/Music/FLAC/DKV Trio - 1999 - Live in Wels & Chicago, 1998 [MP3 V0]/01/05 - Complete Communion Suite, Part 5.mp3
/Users/anch/Music/FLAC/DKV Trio - 1999 - Live in Wels & Chicago, 1998 [FLAC]/01/05 - Complete Communion Suite, Part 5.flac
Track gain : -6.41 dB
Peak : 0.874603
CRC32 hash (test run) : CD8CB334
CRC32 hash : CD8CB334
CRC32 hash (skip zero) : 526AC6BF
AccurateRip v1 signature : 78E6075F
AccurateRip v2 signature : 376D3D12
->Accurately ripped (v1, confidence 2/8)
Statistics
Read error : 0
Jitter error (maybe fixed) : 0
Retry sector count : 0
Damaged sector count : 0
Track 06
Filename : /Users/anch/Music/FLAC/DKV Trio - 1999 - Live in Wels & Chicago, 1998 [MP3 320]/01/06 - Memory Sketch (For Don Cherry).mp3
/Users/anch/Music/FLAC/DKV Trio - 1999 - Live in Wels & Chicago, 1998 [MP3 V0]/01/06 - Memory Sketch (For Don Cherry).mp3
/Users/anch/Music/FLAC/DKV Trio - 1999 - Live in Wels & Chicago, 1998 [FLAC]/01/06 - Memory Sketch (For Don Cherry).flac
Pre-gap length : 00:00:52
Track gain : 5.44 dB
Peak : 0.762665
CRC32 hash (test run) : 8E88355F
CRC32 hash : 8E88355F
CRC32 hash (skip zero) : 31DDB6C2
AccurateRip v1 signature : ED796F9B
AccurateRip v2 signature : 521D3277
->Accurately ripped (v1, confidence 2/8)
Statistics
Read error : 0
Jitter error (maybe fixed) : 0
Retry sector count : 0
Damaged sector count : 0
No errors occurred
End of status report
 
.cue
TITLE "Live in Wels & Chicago, 1998"
PERFORMER "DKV Trio"
REM GENRE "Free Jazz"
REM DATE "1999"
REM DISCNUMBER 1
REM TOTALDISCS 2
REM DISCID 4D0A4B06
REM REPLAYGAIN_ALBUM_GAIN -6.50 dB
REM REPLAYGAIN_ALBUM_PEAK 0.906250
FILE "01 - Complete Communion Suite, Part 1.flac" WAVE
TRACK 01 AUDIO
TITLE "Complete Communion Suite, Part 1"
PERFORMER "DKV Trio"
REM REPLAYGAIN_TRACK_GAIN -6.74 dB
REM REPLAYGAIN_TRACK_PEAK 0.867767
INDEX 01 00:00:00
FILE "02 - Complete Communion Suite, Part 2.flac" WAVE
TRACK 02 AUDIO
TITLE "Complete Communion Suite, Part 2"
PERFORMER "DKV Trio"
REM REPLAYGAIN_TRACK_GAIN -6.91 dB
REM REPLAYGAIN_TRACK_PEAK 0.873322
INDEX 01 00:00:00
FILE "03 - Complete Communion Suite, Part 3.flac" WAVE
TRACK 03 AUDIO
TITLE "Complete Communion Suite, Part 3"
PERFORMER "DKV Trio"
REM REPLAYGAIN_TRACK_GAIN -7.00 dB
REM REPLAYGAIN_TRACK_PEAK 0.906250
INDEX 01 00:00:00
FILE "04 - Complete Communion Suite, Part 4.flac" WAVE
TRACK 04 AUDIO
TITLE "Complete Communion Suite, Part 4"
PERFORMER "DKV Trio"
REM REPLAYGAIN_TRACK_GAIN 0.94 dB
REM REPLAYGAIN_TRACK_PEAK 0.834137
INDEX 01 00:00:00
FILE "05 - Complete Communion Suite, Part 5.flac" WAVE
TRACK 05 AUDIO
TITLE "Complete Communion Suite, Part 5"
PERFORMER "DKV Trio"
REM REPLAYGAIN_TRACK_GAIN -6.41 dB
REM REPLAYGAIN_TRACK_PEAK 0.874603
INDEX 01 00:00:00
TRACK 06 AUDIO
TITLE "Memory Sketch (For Don Cherry)"
PERFORMER "DKV Trio"
REM REPLAYGAIN_TRACK_GAIN 5.44 dB
REM REPLAYGAIN_TRACK_PEAK 0.762665
INDEX 00 09:22:45
FILE "06 - Memory Sketch (For Don Cherry).flac" WAVE
INDEX 01 00:00:00
 
.accurip
[CUETools log; Date: 09/04/14 22:37:20; Version: 2.1.4]
[CTDB TOCID: GcBtwI7Pxg4SkEb3QljwZd.K9O8-] found.
Track | CTDB Status
1 | (1/1) Accurately ripped
2 | (1/1) Accurately ripped
3 | (1/1) Accurately ripped
4 | (1/1) Accurately ripped
5 | (1/1) Accurately ripped
6 | (1/1) Accurately ripped
[AccurateRip ID: 000af3ce-003a92c9-4d0a4b06] found.
Track [ CRC | V2 ] Status
01 [a2e01725|ab3c4edf] (2+0/8) Accurately ripped
02 [472ea5e3|1ecaf54c] (2+0/8) Accurately ripped
03 [1a942296|b6f80c25] (2+0/8) Accurately ripped
04 [517845bb|18f4bcbe] (2+0/8) Accurately ripped
05 [78e6075f|376d3d12] (2+0/8) Accurately ripped
06 [ed796f9b|521d3277] (2+0/8) Accurately ripped
Offsetted by -5:
01 [07831a0f] (6/8) Accurately ripped
02 [dbac5811] (6/8) Accurately ripped
03 [1d065817] (6/8) Accurately ripped
04 [ba5d951d] (6/8) Accurately ripped
05 [33a1cdf0] (6/8) Accurately ripped
06 [0176d8f9] (6/8) Accurately ripped
Track Peak [ CRC32 ] [W/O NULL]
-- 90.6 [2A19F6A4] [A8929FC5]
01 86.7 [CF12CAA7] [D1D1BCA5]
02 87.3 [E01F9CF1] [C148E78D]
03 90.6 [E2166735] [9B310966]
04 83.4 [0778E014] [F529556F]
05 87.4 [CD8CB334] [526AC6BF]
06 76.2 [8E88355F] [31DDB6C2]


Velvet Lounge
2-1 Open Door 30:52
2-2 Blues For Tomorrow 19:12
2-3 Burning Sky 23:05

 
.log
X Lossless Decoder version 20130720 (144.0)
XLD extraction logfile from 2013-08-15 13:46:19 +0400
DKV Trio / Live in Wels & Chicago, 1998
Used drive : HL-DT-ST DVDRW GX30N (revision RP09)
Media type : Pressed CD
Ripper mode : XLD Secure Ripper
Disable audio cache : OK for the drive with a cache less than 1375KiB
Make use of C2 pointers : NO
Read offset correction : 6
Max retry count : 100
Gap status : Analyzed, Appended (except HTOA)
TOC of the extracted CD
Track | Start | Length | Start sector | End sector
---------------------------------------------------------
1 | 00:00:00 | 30:56:28 | 0 | 139227
2 | 30:56:28 | 19:15:66 | 139228 | 225918
3 | 50:12:19 | 23:05:26 | 225919 | 329819
List of alternate offset correction values
# | Absolute | Relative | Confidence
------------------------------------------
1 | 1 | -5 | 6
AccurateRip Summary (DiscID: 000a9ab7-0022b8a6-20112d03)
Track 01 : OK (v1, confidence 2/8)
Track 02 : OK (v1, confidence 2/8)
Track 03 : NG (total 5 submissions)
->2 tracks accurately ripped, 1 track not
All Tracks
Album gain : -6.07 dB
Peak : 0.998566
Statistics
Read error : 0
Jitter error (maybe fixed) : 0
Retry sector count : 0
Damaged sector count : 0
Track 01
Filename : /Users/anch/Music/FLAC/DKV Trio - 1999 - Live in Wels & Chicago, 1998 [MP3 320]/02/01 - Open Door.mp3
/Users/anch/Music/FLAC/DKV Trio - 1999 - Live in Wels & Chicago, 1998 [MP3 V0]/02/01 - Open Door.mp3
/Users/anch/Music/FLAC/DKV Trio - 1999 - Live in Wels & Chicago, 1998 [FLAC]/02/01 - Open Door.flac
Pre-gap length : 00:02:00
Track gain : -5.38 dB
Peak : 0.979126
CRC32 hash (test run) : 846995D4
CRC32 hash : 846995D4
CRC32 hash (skip zero) : 5CC110B7
AccurateRip v1 signature : D7319BB5
AccurateRip v2 signature : FA16CDAE
->Accurately ripped (v1, confidence 2/8)
Statistics
Read error : 0
Jitter error (maybe fixed) : 0
Retry sector count : 0
Damaged sector count : 0
Track 02
Filename : /Users/anch/Music/FLAC/DKV Trio - 1999 - Live in Wels & Chicago, 1998 [MP3 320]/02/02 - Blues for Tomorrow.mp3
/Users/anch/Music/FLAC/DKV Trio - 1999 - Live in Wels & Chicago, 1998 [MP3 V0]/02/02 - Blues for Tomorrow.mp3
/Users/anch/Music/FLAC/DKV Trio - 1999 - Live in Wels & Chicago, 1998 [FLAC]/02/02 - Blues for Tomorrow.flac
Pre-gap length : 00:02:56
Track gain : -5.63 dB
Peak : 0.992584
CRC32 hash (test run) : 26A002FB
CRC32 hash : 26A002FB
CRC32 hash (skip zero) : 87CA4F3F
AccurateRip v1 signature : 2A8E4EE8
AccurateRip v2 signature : DCBA14B8
->Accurately ripped (v1, confidence 2/8)
Statistics
Read error : 0
Jitter error (maybe fixed) : 0
Retry sector count : 0
Damaged sector count : 0
Track 03
Filename : /Users/anch/Music/FLAC/DKV Trio - 1999 - Live in Wels & Chicago, 1998 [MP3 320]/02/03 - Burning Sky.mp3
/Users/anch/Music/FLAC/DKV Trio - 1999 - Live in Wels & Chicago, 1998 [MP3 V0]/02/03 - Burning Sky.mp3
/Users/anch/Music/FLAC/DKV Trio - 1999 - Live in Wels & Chicago, 1998 [FLAC]/02/03 - Burning Sky.flac
Pre-gap length : 00:02:54
Track gain : -6.68 dB
Peak : 0.998566
CRC32 hash (test run) : FD6987C0
CRC32 hash : FD6987C0
CRC32 hash (skip zero) : C88C44C7
AccurateRip v1 signature : 7DF83CAB
AccurateRip v2 signature : F728D076
->Rip may not be accurate (total 5 submissions).
Statistics
Read error : 0
Jitter error (maybe fixed) : 0
Retry sector count : 0
Damaged sector count : 0
No errors occurred
End of status report
 
.cue
TITLE "Live in Wels & Chicago, 1998"
PERFORMER "DKV Trio"
REM GENRE "Free Jazz"
REM DATE "1999"
REM DISCNUMBER 2
REM TOTALDISCS 2
REM DISCID 20112D03
REM REPLAYGAIN_ALBUM_GAIN -6.07 dB
REM REPLAYGAIN_ALBUM_PEAK 0.998566
FILE "01 - Open Door.flac" WAVE
TRACK 01 AUDIO
TITLE "Open Door"
PERFORMER "DKV Trio"
REM REPLAYGAIN_TRACK_GAIN -5.38 dB
REM REPLAYGAIN_TRACK_PEAK 0.979126
INDEX 01 00:00:00
TRACK 02 AUDIO
TITLE "Blues for Tomorrow"
PERFORMER "DKV Trio"
REM REPLAYGAIN_TRACK_GAIN -5.63 dB
REM REPLAYGAIN_TRACK_PEAK 0.992584
INDEX 00 30:53:47
FILE "02 - Blues for Tomorrow.flac" WAVE
INDEX 01 00:00:00
TRACK 03 AUDIO
TITLE "Burning Sky"
PERFORMER "DKV Trio"
REM REPLAYGAIN_TRACK_GAIN -6.68 dB
REM REPLAYGAIN_TRACK_PEAK 0.998566
INDEX 00 19:13:12
FILE "03 - Burning Sky.flac" WAVE
INDEX 01 00:00:00
 
.accurip
[CUETools log; Date: 09/04/14 22:37:46; Version: 2.1.4]
[CTDB TOCID: JW12yg3_L43xQcb_RE6cqryUmrs-] found.
Track | CTDB Status
1 | (1/1) Accurately ripped
2 | (1/1) Accurately ripped
3 | (1/1) Differs in 37740 samples @00:00:13-00:00:49
[AccurateRip ID: 000a9ab7-0022b8a6-20112d03] found.
Track [ CRC | V2 ] Status
01 [d7319bb5|fa16cdae] (2+0/8) Accurately ripped
02 [2a8e4ee8|dcba14b8] (2+0/8) Accurately ripped
03 [7df83cab|f728d076] (0+0/5) No match
Offsetted by -5:
01 [2a268e4e] (6/8) Accurately ripped
02 [014c091f] (6/8) Accurately ripped
03 [3c444d9f] (0/5) No match (V2 was not tested)
Track Peak [ CRC32 ] [W/O NULL]
-- 99.8 [C4137692] [6EBB399C]
01 97.9 [846995D4] [5CC110B7]
02 99.2 [26A002FB] [87CA4F3F]
03 99.8 [FD6987C0] [C88C44C7]


другие релизы
По всем вопросам пишите личное сообщение пользователю M0p94ok.
00:58
147
Нет комментариев. Ваш будет первым!