Вы используете незарегистрированную версию компонента "Вкладки"!

Поиск

(Free Jazz, Post Bop) [CD] Azar Lawrence, Nate Morgan, Henry Franklin, Alphonse Mouzon - Prayer for My Ancestors - 2008, FLAC (tracks+.cue), lossless

(Free Jazz, Post Bop) [CD] Azar Lawrence, Nate Morgan, Henry Franklin, Alphonse Mouzon - Prayer for My Ancestors - 2008, FLAC (tracks+.cue), lossless
Треклист:
Azar Lawrence, Nate Morgan, Henry Franklin, Alphonse Mouzon - Prayer for My Ancestors
Жанр: Free Jazz, Post Bop
Носитель: CD
Страна-производитель диска: США
Год издания: 2008
Издатель (лейбл): Furthermore
Номер по каталогу: 002
Аудиокодек: FLAC (*.flac)
Тип рипа: tracks+.cue
Битрейт аудио: lossless
Продолжительность: 52:52
Источник (релизер): trmptr (what)
Наличие сканов в содержимом раздачи: нет
Треклист:
01. Open Sesame (Lawrence) - 9:06
02. Under Tanzanian Skies (Franklin) - 7:38
03. Thokole (Fall) - 5:27
04. Prayer for My Ancestors (Lawrence) - 5:08
05. The Baker's Daughter (Mouzon) - 8:02
06. Swinging in Exile (Morgan) - 5:41
07. Ode to Pharoah (Lawrence) - 6:14
08. Linda G. (Lawrence-Gordon) - 5:36
Состав:
Azar Lawrence - tenor saxophone, soprano saxophone
Nate Morgan - piano
Henry "The Skipper" Franklin - bass
Alphonse Mouzon - drums
Ibrahim Ba - vocals, guitar
Amadu Fall - kora
Nolan Shaheed - trumpet
Tony Dumas - bass
Roy McCurdy - drums
Recorded at No Sound Studio, Pasadena, CA on July 5-10, 2008.
 
Лог создания рипа
X Lossless Decoder version 20111113 (137.1)
XLD extraction logfile from 2011-11-27 02:00:47 -0800
Azar Lawrence / Prayer For My Ancestors
Used drive : MATSHITA DVD-R UJ-857D (revision KCV9)
Ripper mode : XLD Secure Ripper
Disable audio cache : OK for the drive with a cache less than 1375KiB
Make use of C2 pointers : NO
Read offset correction : 102
Max retry count : 20
Gap status : Analyzed, Appended (except HTOA)
TOC of the extracted CD
Track | Start | Length | Start sector | End sector
---------------------------------------------------------
1 | 00:00:00 | 09:06:28 | 0 | 40977
2 | 09:06:28 | 07:38:10 | 40978 | 75337
3 | 16:44:38 | 05:27:04 | 75338 | 99866
4 | 22:11:42 | 05:08:07 | 99867 | 122973
5 | 27:19:49 | 08:01:68 | 122974 | 159116
6 | 35:21:42 | 05:40:71 | 159117 | 184687
7 | 41:02:38 | 06:14:37 | 184688 | 212774
8 | 47:17:00 | 05:36:33 | 212775 | 238007
AccurateRip Summary
Disc not found in AccurateRip DB.
All Tracks
Album gain : -7.21 dB
Peak : 1.000000
Statistics
Read error : 0
Jitter error (maybe fixed) : 0
Retry sector count : 14
Damaged sector count : 0
Track 01
Filename : /Volumes/Lil Buddy 2/CDrip/Azar Lawrence/Azar Lawrence - Prayer For My Ancestors (2008) [FLAC]/01 Open Sesame.flac
Pre-gap length : 00:02:00
Track gain : -6.77 dB
Peak : 1.000000
CRC32 hash (test run) : FE4DD328
CRC32 hash : FE4DD328
CRC32 hash (skip zero) : 55CC2E84
AccurateRip signature : 4DEE667D
->Track not present in AccurateRip database.
Statistics
Read error : 0
Jitter error (maybe fixed) : 0
Retry sector count : 0
Damaged sector count : 0
Track 02
Filename : /Volumes/Lil Buddy 2/CDrip/Azar Lawrence/Azar Lawrence - Prayer For My Ancestors (2008) [FLAC]/02 Under Tanzanian Skies.flac
Pre-gap length : 00:02:00
Track gain : -4.36 dB
Peak : 0.999969
CRC32 hash (test run) : 2AD36AC7
CRC32 hash : 2AD36AC7
CRC32 hash (skip zero) : 4710DD9A
AccurateRip signature : FE9207B3
->Track not present in AccurateRip database.
Statistics
Read error : 0
Jitter error (maybe fixed) : 0
Retry sector count : 0
Damaged sector count : 0
Track 03
Filename : /Volumes/Lil Buddy 2/CDrip/Azar Lawrence/Azar Lawrence - Prayer For My Ancestors (2008) [FLAC]/03 Thokole.flac
Pre-gap length : 00:02:00
Track gain : -4.42 dB
Peak : 0.965973
CRC32 hash (test run) : 5B8E5E55
CRC32 hash : 5B8E5E55
CRC32 hash (skip zero) : C4CA44CF
AccurateRip signature : FF6A28C8
->Track not present in AccurateRip database.
Statistics
Read error : 0
Jitter error (maybe fixed) : 0
Retry sector count : 7
Damaged sector count : 0
Track 04
Filename : /Volumes/Lil Buddy 2/CDrip/Azar Lawrence/Azar Lawrence - Prayer For My Ancestors (2008) [FLAC]/04 Prayer For My Ancestors.flac
Pre-gap length : 00:02:00
Track gain : -7.31 dB
Peak : 0.965332
CRC32 hash (test run) : 3AB47343
CRC32 hash : 3AB47343
CRC32 hash (skip zero) : A5D3BE10
AccurateRip signature : 7995670E
->Track not present in AccurateRip database.
Statistics
Read error : 0
Jitter error (maybe fixed) : 0
Retry sector count : 0
Damaged sector count : 0
Track 05
Filename : /Volumes/Lil Buddy 2/CDrip/Azar Lawrence/Azar Lawrence - Prayer For My Ancestors (2008) [FLAC]/05 The Baker's Daughter.flac
Pre-gap length : 00:02:00
Track gain : -7.41 dB
Peak : 1.000000
CRC32 hash (test run) : 86536B8B
CRC32 hash : 86536B8B
CRC32 hash (skip zero) : B028C55C
AccurateRip signature : 7A428A69
->Track not present in AccurateRip database.
Statistics
Read error : 0
Jitter error (maybe fixed) : 0
Retry sector count : 0
Damaged sector count : 0
Track 06
Filename : /Volumes/Lil Buddy 2/CDrip/Azar Lawrence/Azar Lawrence - Prayer For My Ancestors (2008) [FLAC]/06 Swinging In Exile.flac
Pre-gap length : 00:02:00
Track gain : -8.66 dB
Peak : 1.000000
CRC32 hash (test run) : 507F1E4F
CRC32 hash : 507F1E4F
CRC32 hash (skip zero) : B3EC0EE6
AccurateRip signature : 65E7FF8D
->Track not present in AccurateRip database.
Statistics
Read error : 0
Jitter error (maybe fixed) : 0
Retry sector count : 0
Damaged sector count : 0
Track 07
Filename : /Volumes/Lil Buddy 2/CDrip/Azar Lawrence/Azar Lawrence - Prayer For My Ancestors (2008) [FLAC]/07 Ode To Pharoah.flac
Pre-gap length : 00:02:00
Track gain : -0.70 dB
Peak : 0.974701
CRC32 hash (test run) : 5C86F504
CRC32 hash : 5C86F504
CRC32 hash (skip zero) : 282DA19C
AccurateRip signature : 70C73A92
->Track not present in AccurateRip database.
Statistics
Read error : 0
Jitter error (maybe fixed) : 0
Retry sector count : 0
Damaged sector count : 0
Track 08
Filename : /Volumes/Lil Buddy 2/CDrip/Azar Lawrence/Azar Lawrence - Prayer For My Ancestors (2008) [FLAC]/08 Linda G..flac
Pre-gap length : 00:02:00
Track gain : -8.06 dB
Peak : 1.000000
CRC32 hash (test run) : 83CA76E9
CRC32 hash : 83CA76E9
CRC32 hash (skip zero) : 5C008300
AccurateRip signature : AB2209C4
->Track not present in AccurateRip database.
Statistics
Read error : 0
Jitter error (maybe fixed) : 0
Retry sector count : 7
Damaged sector count : 0
No errors occurred
End of status report
 
Содержание индексной карты (.CUE)
TITLE "Prayer for My Ancestors"
PERFORMER "Azar Lawrence"
REM GENRE "Jazz"
REM DATE "2008"
REM DISCID 5E0C6508
REM REPLAYGAIN_ALBUM_GAIN -7.21 dB
REM REPLAYGAIN_ALBUM_PEAK 1.000000
FILE "01 - Open Sesame.flac" WAVE
TRACK 01 AUDIO
TITLE "Open Sesame"
REM REPLAYGAIN_TRACK_GAIN -6.77 dB
REM REPLAYGAIN_TRACK_PEAK 1.000000
INDEX 01 00:00:00
TRACK 02 AUDIO
TITLE "Under Tanzanian Skies"
REM REPLAYGAIN_TRACK_GAIN -4.36 dB
REM REPLAYGAIN_TRACK_PEAK 0.999969
INDEX 00 09:04:28
FILE "02 - Under Tanzanian Skies.flac" WAVE
INDEX 01 00:00:00
TRACK 03 AUDIO
TITLE "Thokole"
REM REPLAYGAIN_TRACK_GAIN -4.42 dB
REM REPLAYGAIN_TRACK_PEAK 0.965973
INDEX 00 07:36:10
FILE "03 - Thokole.flac" WAVE
INDEX 01 00:00:00
TRACK 04 AUDIO
TITLE "Prayer for My Ancestors"
REM REPLAYGAIN_TRACK_GAIN -7.31 dB
REM REPLAYGAIN_TRACK_PEAK 0.965332
INDEX 00 05:25:04
FILE "04 - Prayer for My Ancestors.flac" WAVE
INDEX 01 00:00:00
TRACK 05 AUDIO
TITLE "The Baker's Daughter"
REM REPLAYGAIN_TRACK_GAIN -7.41 dB
REM REPLAYGAIN_TRACK_PEAK 1.000000
INDEX 00 05:06:07
FILE "05 - The Baker's Daughter.flac" WAVE
INDEX 01 00:00:00
TRACK 06 AUDIO
TITLE "Swinging in Exile"
REM REPLAYGAIN_TRACK_GAIN -8.66 dB
REM REPLAYGAIN_TRACK_PEAK 1.000000
INDEX 00 07:59:68
FILE "06 - Swinging in Exile.flac" WAVE
INDEX 01 00:00:00
TRACK 07 AUDIO
TITLE "Ode to Pharoah"
REM REPLAYGAIN_TRACK_GAIN -0.70 dB
REM REPLAYGAIN_TRACK_PEAK 0.974701
INDEX 00 05:38:71
FILE "07 - Ode to Pharoah.flac" WAVE
INDEX 01 00:00:00
TRACK 08 AUDIO
TITLE "Linda G."
REM REPLAYGAIN_TRACK_GAIN -8.06 dB
REM REPLAYGAIN_TRACK_PEAK 1.000000
INDEX 00 06:12:37
FILE "08 - Linda G..flac" WAVE
INDEX 01 00:00:00
 
Лог проверки качества
-----------------------
DON'T MODIFY THIS FILE
-----------------------
PERFORMER: auCDtect Task Manager, ver. 1.6.0 RC1 build 1.6.0.1
Copyright (c) 2008-2010 y-soft. All rights reserved
http://y-soft.org
ANALYZER: auCDtect: CD records authenticity detector, version 0.8.2
Copyright (c) 2004 Oleg Berngardt. All rights reserved.
Copyright (c) 2004 Alexander Djourik. All rights reserved.
FILE: 08 - Linda G..flac
Size: 43392910 Hash: 3393C3918521DA4F1C3E813557723C25 Accuracy: -m0
Conclusion: CDDA 100%
Signature: 20DFBCF80A47099E3B799A24A27F13D3434594E0
FILE: 07 - Ode to Pharoah.flac
Size: 35007191 Hash: 24115B66372BF2CD50249A3556BAE6DA Accuracy: -m0
Conclusion: CDDA 100%
Signature: 5C79298FDC8F4421FA4B062F8811B6BBCF9C77A9
FILE: 06 - Swinging in Exile.flac
Size: 38235659 Hash: CEE716356CCB8E93A4F5D641BDDD02B5 Accuracy: -m0
Conclusion: CDDA 100%
Signature: 0F121EBEEE7C5DF5E7E24649055690138A14E0F7
FILE: 05 - The Baker's Daughter.flac
Size: 61964841 Hash: 610A2F9ACF1C034C10DC22FFE507ECE1 Accuracy: -m0
Conclusion: CDDA 100%
Signature: 9B82741FF32D31BC4A8E348CF3157AF4CCC6D77A
FILE: 04 - Prayer for My Ancestors.flac
Size: 32556271 Hash: AFFCF8D2572AA6162117CCB0ED887B1C Accuracy: -m0
Conclusion: CDDA 100%
Signature: 66E234B92BDC5CDA020C323CD99E7580FAD5D154
FILE: 03 - Thokole.flac
Size: 30569885 Hash: 7BC9309747DFB5E885B791A5A210EE49 Accuracy: -m0
Conclusion: CDDA 100%
Signature: A9B7ACBD4ACCDE76B5E88A71E144C09029053CB9
FILE: 02 - Under Tanzanian Skies.flac
Size: 48691518 Hash: 54123E53F048D9531740E17A0C4A478C Accuracy: -m0
Conclusion: CDDA 100%
Signature: ECF172320B4AF132FBE33244308AADCB937362F4
FILE: 01 - Open Sesame.flac
Size: 60095955 Hash: 8ABA72BE165A62BF75B6297057BF0F7D Accuracy: -m0
Conclusion: CDDA 100%
Signature: B33FFA5AAE2F5C7035AEF5879322004795B29EC0
 
Review by Michael G. Nastos
After many decades being off the recording scene, saxophonist Azar Lawrence, still a relatively young man at age 56, is back with a set of originals that reflect his main influences -- Sonny Rollins or Joe Henderson to a lesser extent, but Pharoah Sanders and John Coltrane to a grand degree. Modal structures, rhythms based in African music, and improvisations that are at once sweet and pungent identifies the sound Lawrence has always held close to his heart. With able help from bassist Henry Franklin, drummers Alphonse Mouzon, or Roy McCurdy, and pianist Nate Morgan, Lawrence is able to fly into the sun without ever scorching his wings. He never discards the solid musical values in his sinewy hands since halcyon days as a sideman with McCoy Tyner, or his challenging, against the grain of trendy funk/fusion-era early-'70s recordings for Prestige Records. The difference between Lawrence and all the Coltrane wannabes is that he lived and breathed the music of the turbulent '60s, playing it with 'Trane's contemporaries and peers. This is why tracks like Mouzon's bouncy modal samba "The Baker's Daughter," with assistance from trumpeter Nolan Shaheed and the powerful piece penned by Morgan, "Swinging in Exile" have such an authentic, rooted, earthy feeling. Of course it's mainly due to the full-bodied tenor of Lawrence, whose pithy, burning, soulful tone has stood the test of time, and falls well within the range of his great friends in bygone days. Yet despite the similarities, he remains fresh while true to himself, especially on the repeat melody of "Linda G.," and the hip, hard-swinging "Open Sesame" reiterating that these base elements of repetition and subsequent development are still valid some 30-plus years later. In a floating mood, "Ode to Pharoah," where Lawrence picks up his very mellifluous soprano sax with help from bassist Tony Dumas, and the title track back on tenor, are wondrous ballads similar to Coltrane's "After the Rain" Different from all the rest of the selections, "Thokole" is a 6/8 metered griot story featuring vocalist/guitarist Ibrahim Ba and kora master Amadou Fall, Lawrence again waxing poetic on the thin, higher octave horn, punctuating Ba's wise African lyrics. The prettiest piece is "Under Tanzanian Skies," with Morgan's cascading piano and the delicate, perfectly-in-tune soprano of Lawrence commiserating late at night. In many ways, this should be a recording where those who do remember Azar Lawrence get exactly what they expect. Hopefully listeners who have never known his work will not only thoroughly enjoy this excellent disc, but also discover work on albums like his essential Bridge into the New Age, Tyner's Sama Layuca, Enlightenment, Atlantic, and the Elvin Jones evergreen New Agenda.
По всем вопросам пишите личное сообщение пользователю M0p94ok.
04:21
178
Нет комментариев. Ваш будет первым!