Вы используете незарегистрированную версию компонента "Вкладки"!

Поиск

(Free Jazz, Poetry, Spoken Word) [CD] Ronald Shannon Jackson - Pulse - 1984, FLAC (image+.cue), lossless

(Free Jazz, Poetry, Spoken Word) [CD] Ronald Shannon Jackson - Pulse - 1984, FLAC (image+.cue), lossless
Треклист:
Ronald Shannon Jackson / Pulse
Жанр: Free Jazz, Poetry, Spoken Word
Носитель: CD
Страна-производитель диска (релиза): USA
Год издания: 1984
Издатель (лейбл): Celluloid Records
Номер по каталогу: CELCD 5011
Аудиокодек: FLAC (*.flac)
Тип рипа: image+.cue
Битрейт аудио: lossless
Продолжительность: 39:56
Источник (релизер): gssmg7
Наличие сканов в содержимом раздачи: да
Треклист:
01. Circus Of Civilized Fools 7:27
02. Richard III, Raven 11:30
03. Puttin' On Dog 4:05
04. Hottentot Woman 2:20
05. Last Affair: Bessie´s Blues Song 2:00
06. Geronimo, On The Run 3:18
07. Slim In Atlanta 2:26
08. Tears For The Earthbound 2:44
09. Those Winter Sundays 0:55
10. Lullabye For Mother 2:06
http://www.celluloidrecords.net/releases/CELL5011.php
 
Лог создания рипа
Exact Audio Copy V1.0 beta 2 from 29. April 2011
EAC extraction logfile from 20. January 2016, 22:00
Ronald Shannon Jackson / Pulse
Used drive : Optiarc DVD RW AD-5280S Adapter: 1 ID: 1
Read mode : Secure
Utilize accurate stream : Yes
Defeat audio cache : Yes
Make use of C2 pointers : No
Read offset correction : 48
Overread into Lead-In and Lead-Out : No
Fill up missing offset samples with silence : Yes
Delete leading and trailing silent blocks : No
Null samples used in CRC calculations : Yes
Used interface : Installed external ASPI interface
Used output format : User Defined Encoder
Selected bitrate : 128 kBit/s
Quality : High
Add ID3 tag : No
Command line compressor : C:\Program Files\FLAC\flac.exe
Additional command line options : -V -8 -T "Genre=%genre%" -T "Artist=%artist%" -T "Title=%title%" -T "Album=%albumtitle%" -T "Date=%year%" -T "Tracknumber=%tracknr%" -T "Comment=%comment%" %source%
TOC of the extracted CD
Track | Start | Length | Start sector | End sector
---------------------------------------------------------
1 | 0:00.00 | 7:40.00 | 0 | 34499
2 | 7:40.00 | 11:37.47 | 34500 | 86821
3 | 19:17.47 | 4:17.00 | 86822 | 106096
4 | 23:34.47 | 2:24.00 | 106097 | 116896
5 | 25:58.47 | 2:05.38 | 116897 | 126309
6 | 28:04.10 | 3:21.37 | 126310 | 141421
7 | 31:25.47 | 2:34.00 | 141422 | 152971
8 | 33:59.47 | 2:48.38 | 152972 | 165609
9 | 36:48.10 | 0:59.37 | 165610 | 170071
10 | 37:47.47 | 2:08.48 | 170072 | 179719
Range status and errors
Selected range
Filename C:\Ronald Shannon Jackson (1984) - Pulse\Ronald Shannon Jackson (1984) - Pulse.wav
Peak level 100.0 %
Extraction speed 3.8 X
Range quality 100.0 %
Test CRC 8834EC3D
Copy CRC 8834EC3D
Copy OK
No errors occurred
AccurateRip summary
Track 1 accurately ripped (confidence 1) [8B800781] (AR v1)
Track 2 accurately ripped (confidence 1) [4A3DF857] (AR v1)
Track 3 accurately ripped (confidence 1) [AA15379E] (AR v1)
Track 4 accurately ripped (confidence 1) [6CD3C32D] (AR v1)
Track 5 accurately ripped (confidence 1) [CE9704CC] (AR v1)
Track 6 accurately ripped (confidence 1) [426E7366] (AR v1)
Track 7 accurately ripped (confidence 1) [58A39151] (AR v1)
Track 8 accurately ripped (confidence 1) [61AF9DFF] (AR v1)
Track 9 accurately ripped (confidence 1) [1BB97FAF] (AR v1)
Track 10 accurately ripped (confidence 1) [161B78DF] (AR v1)
All tracks accurately ripped
End of status report
==== Log checksum 74CC23EC3021DD9464DBC2E1B4268DA25C567DF0593E2614BF10B6BBF71E4332 ====
 
Содержание индексной карты (.CUE)
REM GENRE Jazz
REM DATE 1984
REM DISCID 82095C0A
REM COMMENT "ExactAudioCopy v1.0b2"
PERFORMER "Ronald Shannon Jackson"
TITLE "Pulse"
FILE "Ronald Shannon Jackson (1984) - Pulse.flac" WAVE
TRACK 01 AUDIO
TITLE "Circus Of Civilized Fools"
PERFORMER "Ronald Shannon Jackson"
INDEX 01 00:00:00
TRACK 02 AUDIO
TITLE "Richard III, Raven"
PERFORMER "Ronald Shannon Jackson"
INDEX 00 07:29:52
INDEX 01 07:40:00
TRACK 03 AUDIO
TITLE "Puttin' On Dog"
PERFORMER "Ronald Shannon Jackson"
INDEX 00 19:13:50
INDEX 01 19:17:47
TRACK 04 AUDIO
TITLE "Hottentot Woman"
PERFORMER "Ronald Shannon Jackson"
INDEX 00 23:31:45
INDEX 01 23:34:47
TRACK 05 AUDIO
TITLE "Last Affair - Bessie.s Blues Song"
PERFORMER "Ronald Shannon Jackson"
INDEX 00 25:51:55
INDEX 01 25:58:47
TRACK 06 AUDIO
TITLE "Geronimo, On The Run"
PERFORMER "Ronald Shannon Jackson"
INDEX 00 28:01:55
INDEX 01 28:04:10
TRACK 07 AUDIO
TITLE "Slim In Atlanta"
PERFORMER "Ronald Shannon Jackson"
INDEX 00 31:24:10
INDEX 01 31:25:47
TRACK 08 AUDIO
TITLE "Tears For The Earthbound"
PERFORMER "Ronald Shannon Jackson"
INDEX 00 33:54:60
INDEX 01 33:59:47
TRACK 09 AUDIO
TITLE "Those Winter Sundays"
PERFORMER "Ronald Shannon Jackson"
INDEX 00 36:44:37
INDEX 01 36:48:10
TRACK 10 AUDIO
TITLE "Lullabye For Mother"
PERFORMER "Ronald Shannon Jackson"
INDEX 00 37:43:70
INDEX 01 37:47:47
 
Состав
Ronald Shannon Jackson - drums, voice (tracks: 02, 03, 07)
Onaje Allen Gumbs - piano (tracks: 10)
Michael S. Harper - voice (tracks: 05, 09)
Any questions - support@pro-jazz.com. Есть вопросы - support@pro-jazz.com
18:27
323
Нет комментариев. Ваш будет первым!