Вы используете незарегистрированную версию компонента "Вкладки"!

Поиск

(Free Jazz, Poetry, Avant-Garde Jazz) Positive Knowledge (Oluyemi Thomas, Ijeoma Thomas, Roberto de Haven) - Another Day's Journey - 1994, FLAC (image+.cue), lossless

(Free Jazz, Poetry, Avant-Garde Jazz) Positive Knowledge (Oluyemi Thomas, Ijeoma Thomas, Roberto de Haven) - Another Day's Journey - 1994, FLAC (image+.cue), lossless
Треклист:
Positive Knowledge / Another Day's Journey
Жанр: Free Jazz, Poetry, Avant-Garde Jazz
Страна-производитель диска: USA
Год издания диска: 1994
Издатель (лейбл): Music And Arts Programs Of America, Inc.
Номер по каталогу: CD-842
Страна: USA
Аудиокодек: FLAC (*.flac)
Тип рипа: image+.cue
Битрейт аудио: lossless
Продолжительность: 1:00:19
Источник (релизер): CD
Наличие сканов в содержимом раздачи: да
Треклист:
1 - Changes (Dedicated To Etonde) (6:42)
2 - Conference Of The Artists (13:53)
3 - Inward Connections (6:31)
4 - Theme From Inward Connections - A - (2:16)
5 - Intonation Earth Eyes (6:07)
6 - Holy Mountain (7:52)
7 - Another Day's Journey (6:03)
8 - Theme From Another Day's Journey (5:58)
9 - Theme From Inward Connections - B - (4:38)
 
Лог создания рипа
Exact Audio Copy V1.0 beta 2 from 29. April 2011
EAC extraction logfile from 13. September 2011, 11:52
Positive Knowledge / Another Day's Journey
Used drive : Optiarc DVD RW AD-7240S Adapter: 2 ID: 0
Read mode : Secure
Utilize accurate stream : Yes
Defeat audio cache : Yes
Make use of C2 pointers : No
Read offset correction : 48
Overread into Lead-In and Lead-Out : No
Fill up missing offset samples with silence : Yes
Delete leading and trailing silent blocks : No
Null samples used in CRC calculations : Yes
Used interface : Native Win32 interface for Win NT & 2000
Used output format : User Defined Encoder
Selected bitrate : 768 kBit/s
Quality : High
Add ID3 tag : No
Command line compressor : C:\Program Files\Exact Audio Copy\FLAC\FLAC.EXE
Additional command line options : -6 -V -T "ARTIST=%artist%" -T "TITLE=%title%" -T "ALBUM=%albumtitle%" -T "DATE=%year%" -T "TRACKNUMBER=%tracknr%" -T "GENRE=%genre%" -T "COMMENT=%comment%" -T "BAND=%albuminterpret%" -T "COMPOSER=%composer%" %haslyrics%--ta
TOC of the extracted CD
Track | Start | Length | Start sector | End sector
---------------------------------------------------------
1 | 0:00.00 | 6:45.32 | 0 | 30406
2 | 6:45.32 | 13:53.30 | 30407 | 92911
3 | 20:38.62 | 6:34.15 | 92912 | 122476
4 | 27:13.02 | 2:17.13 | 122477 | 132764
5 | 29:30.15 | 6:09.62 | 132765 | 160501
6 | 35:40.02 | 7:56.43 | 160502 | 196244
7 | 43:36.45 | 6:06.45 | 196245 | 223739
8 | 49:43.15 | 5:56.55 | 223740 | 250494
9 | 55:39.70 | 4:39.37 | 250495 | 271456
Range status and errors
Selected range
Filename C:\Documents and Settings\User\Мои документы\Positive Knowledge - Another Day's Journey (1994)\Positive Knowledge - Another Day's Journey.wav
Peak level 75.0 %
Extraction speed 4.1 X
Range quality 99.9 %
Test CRC 0E6CFF72
Copy CRC 0E6CFF72
Copy OK
No errors occurred
AccurateRip summary
Track 1 accurately ripped (confidence 1) [C3EE38A8] (AR v1)
Track 2 accurately ripped (confidence 1) [A7A1BE9E] (AR v1)
Track 3 accurately ripped (confidence 1) [ECED7467] (AR v1)
Track 4 accurately ripped (confidence 1) [69814848] (AR v1)
Track 5 accurately ripped (confidence 1) [ED2DEE80] (AR v1)
Track 6 accurately ripped (confidence 1) [79E6893B] (AR v1)
Track 7 accurately ripped (confidence 1) [50F32C44] (AR v1)
Track 8 accurately ripped (confidence 1) [D66384F2] (AR v1)
Track 9 accurately ripped (confidence 1) [ED4E3D20] (AR v1)
All tracks accurately ripped
End of status report
==== Log checksum BA439F302EE02490466727B93DF6B91CB40041968CB50C2991A037A4E2EC415A ====
 
Содержание индексной карты (.CUE)
REM GENRE Jazz
REM DATE 1994
REM DISCID 710E2309
REM COMMENT "ExactAudioCopy v1.0b2"
CATALOG 0000000000000
PERFORMER "Positive Knowledge"
TITLE "Another Day's Journey"
FILE "Positive Knowledge - Another Day's Journey.flac" WAVE
TRACK 01 AUDIO
TITLE "Changes"
PERFORMER "Positive Knowledge"
INDEX 01 00:00:00
TRACK 02 AUDIO
TITLE "Conference Of The Artists"
PERFORMER "Positive Knowledge"
INDEX 00 06:43:31
INDEX 01 06:45:32
TRACK 03 AUDIO
TITLE "Inward Connections"
PERFORMER "Positive Knowledge"
INDEX 00 20:36:52
INDEX 01 20:38:62
TRACK 04 AUDIO
TITLE "Theme From Inward Connections - A"
PERFORMER "Positive Knowledge"
INDEX 00 27:10:05
INDEX 01 27:13:02
TRACK 05 AUDIO
TITLE "Intonation Earth Eyes"
PERFORMER "Positive Knowledge"
INDEX 00 29:25:55
INDEX 01 29:30:15
TRACK 06 AUDIO
TITLE "Holy Mountain"
PERFORMER "Positive Knowledge"
INDEX 00 35:37:72
INDEX 01 35:40:02
TRACK 07 AUDIO
TITLE "Another Day's Journey"
PERFORMER "Positive Knowledge"
INDEX 00 43:33:42
INDEX 01 43:36:45
TRACK 08 AUDIO
TITLE "Theme From Another Day's Journey"
PERFORMER "Positive Knowledge"
INDEX 00 49:40:40
INDEX 01 49:43:15
TRACK 09 AUDIO
TITLE "Theme From Inward Connections - B"
PERFORMER "Positive Knowledge"
INDEX 01 55:39:70
 
Доп. информация
Recorded at Wette Music, Sausalito, CA, on 13th Dec. 1992.
 
Об исполнителе (группе)
'These are serious musicians who have dedicated their lives to the wonder and challenge of positive evolution and universal consciousness' - Anthony Braxton
 
Состав
Oluyemi Thomas - bass clarinet, C-melody, soprano saxophones, bamboo flute & percussion
Ijeoma Thomas - poetic vocals and percussion
Guest artist: Roberto de Haven - percussion
Any questions -> support@pro-jazz.com. По всем вопросам пишите -> support@pro-jazz.com
16:58
230
Нет комментариев. Ваш будет первым!