Вы используете незарегистрированную версию компонента "Вкладки"!

Поиск

(free jazz) Pharoah Sanders ‎– Live 1981, FLAC (tracks+.cue), lossless

(free jazz) Pharoah Sanders ‎– Live 1981, FLAC (tracks+.cue), lossless
Треклист:


Pharoah Sanders ‎– Live 1981

Жанр: free jazz
Год выпуска: 1981
Издатель (лейбл):Evidence, ECD 22223-2
Формат: FLAC (tracks+.cue)
Битрейт аудио: lossless
Продолжительность 1`04`48
Источник: what.cd, weareborg
Bass – Walter Booker
Drums – Idris Muhammad
Piano – John Hicks
Tenor Saxophone – Pharoah Sanders
Recorded:
tracks 1, 2: 1981/04/16-19 live at Maiden Voyage in Los Angeles, CA
tracks 3, 4: 1981/04/20 live at Kuumbwa Jazz Center in Santa Cruz, CA
track 5: 1981/04/12 live at the Great American Music Hall in San Francisco, CA
mixed at Bear West Studios in San Francisco, CA
Released: 2003 reissue, 1982 (original: Theresa Records, TR 116)

tracks

1 You Got To Have Freedom 14:17
2 Easy To Remember 6:52
3 Blues For Santa Cruz 8:39
4 Pharomba 13:26
5 Doktor Pitt 21:34


 
.log
Exact Audio Copy V0.99 prebeta 4 from 23. January 2008
EAC extraction logfile from 12. January 2009, 16:51
Sanders, Pharoah / Live
Used drive : TSSTcorpCDDVDW SH-S223F Adapter: 0 ID: 0
Read mode : Secure
Utilize accurate stream : Yes
Defeat audio cache : No
Make use of C2 pointers : Yes
Read offset correction : 6
Overread into Lead-In and Lead-Out : No
Fill up missing offset samples with silence : Yes
Delete leading and trailing silent blocks : No
Null samples used in CRC calculations : Yes
Used interface : Installed external ASPI interface
Gap handling : Appended to previous track
Used output format : User Defined Encoder
Selected bitrate : 1024 kBit/s
Quality : High
Add ID3 tag : No
Command line compressor : C:\Program Files\FLAC\flac.exe
Additional command line options : -T "artist=%a" -T "title=%t" -T "album=%g" -T "date=%y" -T "tracknumber=%n" -T "genre=%m" -7 --verify %s
TOC of the extracted CD
Track | Start | Length | Start sector | End sector
---------------------------------------------------------
1 | 0:00.00 | 14:17.07 | 0 | 64281
2 | 14:17.07 | 6:51.70 | 64282 | 95176
3 | 21:09.02 | 8:39.15 | 95177 | 134116
4 | 29:48.17 | 13:26.03 | 134117 | 194569
5 | 43:14.20 | 21:34.10 | 194570 | 291629
Track 1
Filename E:\My Music\Artists\S\Sanders, Pharoah\Live\re-rip\01 - You've Got To Have Freedom.wav
Pre-gap length 0:00:02.00
Peak level 98.1 %
Track quality 99.9 %
Test CRC 9F358D08
Copy CRC 9F358D08
Track not present in AccurateRip database
Copy OK
Track 2
Filename E:\My Music\Artists\S\Sanders, Pharoah\Live\re-rip\02 - Easy To Remember.wav
Peak level 95.9 %
Track quality 100.0 %
Test CRC 76E8EEA1
Copy CRC 76E8EEA1
Track not present in AccurateRip database
Copy OK
Track 3
Filename E:\My Music\Artists\S\Sanders, Pharoah\Live\re-rip\03 - Blues for Santa Cruz.wav
Peak level 98.7 %
Track quality 99.9 %
Test CRC 933C6B3F
Copy CRC 933C6B3F
Track not present in AccurateRip database
Copy OK
Track 4
Filename E:\My Music\Artists\S\Sanders, Pharoah\Live\re-rip\04 - Pharomba.wav
Peak level 98.8 %
Track quality 100.0 %
Test CRC 77ACBC6D
Copy CRC 77ACBC6D
Track not present in AccurateRip database
Copy OK
Track 5
Filename E:\My Music\Artists\S\Sanders, Pharoah\Live\re-rip\05 - Doktor Pitt.wav
Pre-gap length 0:00:01.65
Peak level 99.8 %
Track quality 100.0 %
Test CRC 954C1B20
Copy CRC 954C1B20
Track not present in AccurateRip database
Copy OK
None of the tracks are present in the AccurateRip database
No errors occurred
End of status report
 
.cue
REM GENRE Jazz
REM DATE 1981
REM DISCID 4A0F3005
REM COMMENT "ExactAudioCopy v0.99pb4"
PERFORMER "Sanders, Pharoah"
TITLE "Live"
FILE "01 - You've Got To Have Freedom.wav" WAVE
TRACK 01 AUDIO
TITLE "You've Got To Have Freedom"
PERFORMER "Sanders, Pharoah"
INDEX 01 00:00:00
FILE "02 - Easy To Remember.wav" WAVE
TRACK 02 AUDIO
TITLE "Easy To Remember"
PERFORMER "Sanders, Pharoah"
INDEX 01 00:00:00
FILE "03 - Blues for Santa Cruz.wav" WAVE
TRACK 03 AUDIO
TITLE "Blues for Santa Cruz"
PERFORMER "Sanders, Pharoah"
INDEX 01 00:00:00
FILE "04 - Pharomba.wav" WAVE
TRACK 04 AUDIO
TITLE "Pharomba"
PERFORMER "Sanders, Pharoah"
INDEX 01 00:00:00
TRACK 05 AUDIO
TITLE "Doktor Pitt"
PERFORMER "Sanders, Pharoah"
INDEX 00 13:24:13
FILE "05 - Doktor Pitt.wav" WAVE
INDEX 01 00:00:00
 
.accurip
[CUETools log; Date: 26/06/13 21:21:14; Version: 2.1.4]
HDCD: peak extend: none, transient filter: none, gain: -4.0dB..0.0dB
[CTDB TOCID: VN5X3blAmGL.Z4sFFXYpvbE54ZU-] found.
Track | CTDB Status
1 | (2/2) Accurately ripped
2 | (2/2) Accurately ripped
3 | (2/2) Accurately ripped
4 | (2/2) Accurately ripped
5 | (2/2) Accurately ripped
[AccurateRip ID: 000be600-00380c6a-4a0f3005] found.
Track [ CRC | V2 ] Status
01 [4edf6e12|4e84ece8] (0+0/4) No match
02 [bb98be1a|b2b5e3ab] (0+0/4) No match
03 [f004f89b|39c3ef75] (0+0/4) No match
04 [e576a4cf|857164d2] (0+0/4) No match
05 [9e636698|f3520312] (0+0/4) No match
Offsetted by -30:
01 [2db884d6] (4/4) Accurately ripped
02 [d0cc423c] (4/4) Accurately ripped
03 [bafbd609] (4/4) Accurately ripped
04 [e3d818ac] (4/4) Accurately ripped
05 [334d99cd] (4/4) Accurately ripped
Track Peak [ CRC32 ] [W/O NULL] [ LOG ]
-- 99.8 [B1C61324] [B00A486F]
01 98.1 [9F358D08] [3F73DBE2] CRC32
02 95.9 [76E8EEA1] [4CC2621E] CRC32
03 98.7 [933C6B3F] [2DD6F77C] CRC32
04 98.8 [77ACBC6D] [8222E7E2] CRC32
05 99.8 [954C1B20] [2094EB54] CRC32

другие релизы
Any questions -> support@pro-jazz.com. По всем вопросам пишите -> support@pro-jazz.com
15:25
200
Нет комментариев. Ваш будет первым!