Поиск

(free-jazz) Peter Brotzmann / Toshinori Kondo / William Parker / Hamid Drake - Die Like A Dog - 1993, FLAC (image + .cue), lossless

(free-jazz) Peter Brotzmann / Toshinori Kondo / William Parker / Hamid Drake - Die Like A Dog - 1993, FLAC (image + .cue), lossless
Треклист:
Peter Brotzmann / Toshinori Kondo / William Parker / Hamid Drake - Die Like A Dog
Страна: USA / Germany / Japan
Жанр: free-jazz
Год выпуска: 1993
Формат: FLAC (image + .cue)
Битрейт аудио: lossless
Продолжительность: 72.43
Трэклист:DIE LIKE A DOG -
fragments of music, life and death of ALBERT AYLER
composed by Peter Brotzmannno.1 : 21'47"
no.2 : 15'59"
A : saint james infirmary (don redman) 4'07"
B : 10'37"
C : saint james infirmary (don redman) 1'15"
no.3 : 18'51"
A : two birds in a feather (p.brotzmann) 1'23"
B : 17'28"
no.4 : 16'05"
for no. 1, 2B, 3B, 4B was used very short quotations out of ALBERT AYLER's music in different variations. (prophet, ghosts, spirits, bells and others)
Доп. информация: PETER BROTZMANN - alto & tenor saxophones, tarogato
TOSHINORI KONDO - trumpet, electronics
WILLIAM PARKER - double bass
HAMID DRAKE - drums, frame drum
 
eac log
Exact Audio Copy V0.99 prebeta 4 from 23. January 2008
Отчёт EAC об извлечении, выполненном 22. мая 2008, 19:21
Peter Brotzmann / Die Like A Dog
Дисковод: Optiarc DVD RW AD-7170A Adapter: 0 ID: 1
Режим чтения : Достоверность
Использование точного потока : Да
Отключение кэша аудио : Да
Использование указателей C2 : Нет
Коррекция смещения при чтении : 48
Способность читать области Lead-in и Lead-out : Нет
Заполнение пропущенных сэмплов тишиной : Да
Удаление блоков с тишиной в начале и конце : Нет
При вычислениях CRC использовались нулевые сэмплы : Нет
Интерфейс : Встроенный Win32-интерфейс для Win NT/2000
Выходной формат : Пользовательский кодировщик
Выбранный битрейт : 768 kBit/s
Качество : Высокий
Добавление ID3-тэга : Нет
Утилита сжатия : C:\Program Files\Exact Audio Copy\FLAC\FLAC.EXE
Дополнительные параметры : -6 -V -T "ARTIST=%a" -T "TITLE=%t" -T "ALBUM=%g" -T "DATE=%y" -T "TRACKNUMBER=%n" -T "GENRE=%m" -T "COMMENT=%e" %s -o %d
TOC извлечённого CD
Трек | Старт | Длительность | Начальный сектор | Конечный сектор
---------------------------------------------------------------------
1 | 0:00.00 | 21:48.12 | 0 | 98111
2 | 21:48.12 | 15:58.63 | 98112 | 170024
3 | 37:47.00 | 18:50.50 | 170025 | 254824
4 | 56:37.50 | 16:05.25 | 254825 | 327224
Характеристики диапазона извлечения и сообщения об ошибках
Выбранный диапазон
Имя файла C:\Music\Peter Brotzmann - Die Like A Dog.wav
Пиковый уровень 99.5 %
Качество диапазона 98.7 %
CRC копии 6C7E5BD4
Копирование... OK
Ошибок не произошло
AccurateRip: сводка
Трек 1 точное извлечение (доверие 2) [A44CF52B]
Трек 2 точное извлечение (доверие 2) [6A11A9FE]
Трек 3 нет в базе данных
Трек 4 нет в базе данных
2 трек(и) скопированы точно
2 трек(и) не содержатся в базе AccurateRip
Некоторые треки не прошли проверку на точность
Конец отчёта
Приватный:
Нет (DHT включён)
Размер:
403.78 Мб (423,394,070 байт) » файлов: 3
Участники:
0 раздают, 0 качают (0 участников всего)
Внешние участники:
3 раздают, 1 качают (4 участников всего) [ Обновить ]
No seeders - write a personal message to user M0p94ok. Нет сидеров - пишите личное сообщение пользователю M0p94ok.
01:24
57
Нет комментариев. Ваш будет первым!