Вы используете незарегистрированную версию компонента "Вкладки"!

Поиск

(Free Jazz, Percussion Music, FMR) [CD] Michel Lambert & Rakalam Bob Moses - Meditation On Grace - 2008, FLAC (tracks+.cue), lossless

(Free Jazz, Percussion Music, FMR) [CD] Michel Lambert & Rakalam Bob Moses - Meditation On Grace - 2008, FLAC (tracks+.cue), lossless
Треклист:
Michel Lambert & Rakalam Bob Moses / Meditation On Grace
Жанр: Free Jazz, Percussion Music, FMR
Носитель: CD
Страна-производитель диска: UK
Год издания: 2008
Издатель (лейбл): FMR Records
Номер по каталогу: FMRCD256-0108
Страна: Canada, US
Аудиокодек: FLAC (*.flac)
Тип рипа: tracks+.cue
Битрейт аудио: lossless
Продолжительность: 71:22
Источник (релизер): свой фирменный диск
Наличие сканов в содержимом раздачи:
Треклист:
1. Barrage 11:11
2. Meditation On Grace 22:56
3. Delicate Balance 22:54
4. Radiant Transmission 14:34
 
Лог создания рипа
Exact Audio Copy V1.0 beta 3 from 29. August 2011
EAC extraction logfile from 24. May 2014, 14:54
Michel Lambert & Rakalam Bob Moses / Meditation On Grace
Used drive : PIONEER DVD-RW DVR-115D Adapter: 0 ID: 0
Read mode : Secure
Utilize accurate stream : Yes
Defeat audio cache : Yes
Make use of C2 pointers : No
Read offset correction : 48
Overread into Lead-In and Lead-Out : No
Fill up missing offset samples with silence : Yes
Delete leading and trailing silent blocks : No
Null samples used in CRC calculations : Yes
Used interface : Installed external ASPI interface
Gap handling : Appended to previous track
Used output format : User Defined Encoder
Selected bitrate : 896 kBit/s
Quality : High
Add ID3 tag : No
Command line compressor : C:\Program Files\Exact Audio Copy\FLAC\FLAC.EXE
Additional command line options : -6 -V -T "ARTIST=%artist%" -T "TITLE=%title%" -T "ALBUM=%albumtitle%" -T "DATE=%year%" -T "TRACKNUMBER=%tracknr%" -T "GENRE=%genre%" -T "COMMENT=%comment%" -T "BAND=%albuminterpret%" -T "COMPOSER=%composer%" %haslyrics%--tag-from-file=LYRICS="%lyricsfile%"%haslyrics% -T "DISCNUMBER=%cdnumber%" -T "TOTALDISCS=%totalcds%" -T "TOTALTRACKS=%numtracks%" %hascover%--picture="%coverfile%"%hascover% %source% -o %dest%
TOC of the extracted CD
Track | Start | Length | Start sector | End sector
---------------------------------------------------------
1 | 0:00.00 | 11:11.27 | 0 | 50351
2 | 11:11.27 | 22:56.73 | 50352 | 153624
3 | 34:08.25 | 22:54.09 | 153625 | 256683
4 | 57:02.34 | 14:20.39 | 256684 | 321222
Track 1
Filename D:\zzz\01 - Barrage.wav
Pre-gap length 0:00:02.00
Peak level 97.7 %
Extraction speed 5.3 X
Track quality 100.0 %
Test CRC AD8DCCF4
Copy CRC AD8DCCF4
Track not present in AccurateRip database
Copy OK
Track 2
Filename D:\zzz\02 - Meditation On Grace.wav
Pre-gap length 0:00:02.00
Peak level 97.7 %
Extraction speed 7.1 X
Track quality 100.0 %
Test CRC CB7A2051
Copy CRC CB7A2051
Track not present in AccurateRip database
Copy OK
Track 3
Filename D:\zzz\03 - Delicate Balance.wav
Pre-gap length 0:00:02.00
Peak level 97.7 %
Extraction speed 8.5 X
Track quality 99.9 %
Test CRC 3BD41B8D
Copy CRC 3BD41B8D
Track not present in AccurateRip database
Copy OK
Track 4
Filename D:\zzz\04 - Radiant Transmission.wav
Pre-gap length 0:00:02.00
Peak level 97.7 %
Extraction speed 9.2 X
Track quality 99.9 %
Test CRC 9DF10FE0
Copy CRC 9DF10FE0
Track not present in AccurateRip database
Copy OK
None of the tracks are present in the AccurateRip database
No errors occurred
End of status report
==== Log checksum 855BFDBD546C2C033D586C28407AA042889FB7C9D7A3FB12E3A1980098193659 ====
 
Содержание индексной карты (.CUE)
REM GENRE "Percussion Music"
REM DATE 2008
REM DISCID 2610BA04
REM COMMENT "ExactAudioCopy v1.0b3"
PERFORMER "Michel Lambert & Rakalam Bob Moses"
TITLE "Meditation On Grace"
FILE "01 - Barrage.wav" WAVE
TRACK 01 AUDIO
TITLE "Barrage"
PERFORMER "Michel Lambert & Rakalam Bob Moses"
INDEX 01 00:00:00
TRACK 02 AUDIO
TITLE "Meditation On Grace"
PERFORMER "Michel Lambert & Rakalam Bob Moses"
INDEX 00 11:09:27
FILE "02 - Meditation On Grace.wav" WAVE
INDEX 01 00:00:00
TRACK 03 AUDIO
TITLE "Delicate Balance"
PERFORMER "Michel Lambert & Rakalam Bob Moses"
INDEX 00 22:54:73
FILE "03 - Delicate Balance.wav" WAVE
INDEX 01 00:00:00
TRACK 04 AUDIO
TITLE "Radiant Transmission"
PERFORMER "Michel Lambert & Rakalam Bob Moses"
INDEX 00 22:52:09
FILE "04 - Radiant Transmission.wav" WAVE
INDEX 01 00:00:00
 
Лог проверки качества
d:\>d:\aucdtect -d/-m0 d:\zzz\*.wav
auCDtect: CD records authenticity detector, version 0.8.2
Copyright (c) 2004 Oleg Berngardt. All rights reserved.
Copyright (c) 2004 Alexander Djourik. All rights reserved.
------------------------------------------------------------
Processing file: [01. Barrage.wav]
------------------------------------------------------------
This track looks like CDDA with probability 100%
------------------------------------------------------------
Processing file: [02. Meditation On Grace.wav]
------------------------------------------------------------
This track looks like CDDA with probability 100%
------------------------------------------------------------
Processing file: [03. Delicate Balance.wav]
------------------------------------------------------------
This track looks like CDDA with probability 100%
------------------------------------------------------------
Processing file: [04. Radiant Transmission.wav]
------------------------------------------------------------
This track looks like CDDA with probability 100%
------------------------------------------------------------
Final Conclusion:
------------------------------------------------------------
These tracks looks like CDDA with probability 100%
Доп. информация:
 
Album Info & FreeJazzBlog.com Review
Recorded: July 15th 2004 in Quincy, Massachusetts USA
Recording P J Goodwin
Mixing P J Goodwin & Rakalam Bob Moses
Produced by Michel Lambert
Produced for FMR by Trevor Taylor
Artwork by Michel Lambert & Rakalam Bob Moses
Photo by P J Goodwin
Artwork photographed by Jeannette Lambert
Sleeve design by Ewan Rigg
Liner notes: Michel Lambert & Rakalam Bob Moses
The CD consists of four lengthy pieces, recorded live in Quincy, Massachusetts in 2004. If the first track brings some forceful drumming, the second track is a little bit more varied, with softer touches, more creative, conjuring up percussive landscapes, reacting well to one another, doing their utmost to bring that story, trying to make percussion by itself sufficient to tell a story, trying to act as if melodic instruments are no longer necessary. Bob Moses shouts once in a while. The best thing about the album is that both drummers play just for the fun of the interaction. Many solo drum albums are show-off albums, pieces of demonstrations of skills. Here the music itself dominates, and the fourth track is the most powerful one, with some quite intense whipping sounds, rumbling sounds, dry beats, and sizzling brushes. There are some great things to hear on the album, even for non-percussionists, despite the limitations of the concept. Drummers will surely find this of interest.
 
Состав
Michel Lambert & Rakalam Bob Moses: drums & percussion
По всем вопросам пишите личное сообщение пользователю M0p94ok.
03:33
125
Нет комментариев. Ваш будет первым!