Вы используете незарегистрированную версию компонента "Вкладки"!

Поиск

(Free Jazz) Ornette Coleman - Harlem's Manhattan 1961 [Giant Of Jazz 225] - 1996, APE (image+.cue), lossless

Треклист:
Ornette Coleman - Harlem's Manhattan 1961 [Giant Of Jazz 225]

Жанр: Free Jazz
Год выпуска диска: 1996
Производитель диска: Италия
Аудио кодек: APE
Тип рипа: image+.cue
Битрейт аудио: lossless
Продолжительность: 72:43
Трэклист:
1. PROOF Readers (*)
2. R.P.D.D. (*)
3. W.R.U. (*)
4. Check Up (*)
5. Eos (**)
6. Cross Breeding (***)
7. Harlem's Manhattan (***)
Доп. информация: компиляция
(*)
New York City, January 31,1961
Ornette Coleman (as)
Don Cherry (pocket tp)
Scott La Faro (b)
Ed Blackwell (d)
(**)
New York City, March 22,1961
Ornette Coleman (as)
Don Cherry (pocket tp)
Jimmy Garrison (b)
Ed Blackwell (d)
(***)
New York City, March 27,1961
Ornette Coleman (as)
Don Cherry (pocket tp)
Scott La Faro (b)
Ed Blackwell (d)
Giants Of Jazz cd53225
 
EAC
Exact Audio Copy V0.99 prebeta 4 from 23. January 2008
EAC extraction logfile from 11. August 2008, 20:01
Ornette Coleman / Harlem's Manhattan 1961
Used drive : PLEXTOR DVDR PX-800A Adapter: 1 ID: 0
Read mode : Secure
Utilize accurate stream : Yes
Defeat audio cache : No
Make use of C2 pointers : No
Read offset correction : 48
Overread into Lead-In and Lead-Out : No
Fill up missing offset samples with silence : Yes
Delete leading and trailing silent blocks : No
Null samples used in CRC calculations : No
Used interface : Native Win32 interface for Win NT & 2000
Used output format : Monkey's Audio Lossless Encoder v3.99 DLL
Sample format : Fast Lossless Compression
TOC of the extracted CD
Track | Start | Length | Start sector | End sector
---------------------------------------------------------
1 | 0:00.00 | 10:28.38 | 0 | 47137
2 | 10:28.38 | 9:41.12 | 47138 | 90724
3 | 20:09.50 | 16:27.43 | 90725 | 164792
4 | 36:37.18 | 10:13.25 | 164793 | 210792
5 | 46:50.43 | 6:37.57 | 210793 | 240624
6 | 53:28.25 | 11:20.30 | 240625 | 291654
7 | 64:48.55 | 8:11.38 | 291655 | 328517
Range status and errors
Selected range
Filename M:\Files\Jazz\Audio\SAAR\Temp\Giants of Jazz - Disc 225 -\Ornette Coleman - Harlem's Manhattan 1961.ape
Peak level 100.0 %
Range quality 98.2 %
Copy CRC 5B7E06E4
Copy OK
No errors occurred
AccurateRip summary
Track 1 not present in database
Track 2 not present in database
Track 3 not present in database
Track 4 not present in database
Track 5 not present in database
Track 6 not present in database
Track 7 not present in database
None of the tracks are present in the AccurateRip database
End of status report
Найден в сети
Giants Of Jazz на трекере
Any questions -> support@pro-jazz.com. По всем вопросам пишите -> support@pro-jazz.com
10:56
192
Нет комментариев. Ваш будет первым!