Вы используете незарегистрированную версию компонента "Вкладки"!

Поиск

(Free Jazz) Ornette Coleman - Dedication To Poets And Writers - 1962, FLAC (tracks+.cue), lossless

Треклист:
Ornette Coleman - Dedication To Poets And Writers
Жанр: Free Jazz
Год выпуска диска: 1962
Производитель диска: Magic Music (30010-CD)
Источник: вот.сиди (aphex80)
Аудио кодек: FLAC
Тип рипа: tracks+.cue
Битрейт аудио: lossless
Продолжительность: 44:40
Треклист:
1 Doughnut 9:00
2 Sadness 4:00
3 Dedication To Poets And Writers 8:50
4 The Ark 23:24
Recorded at Town Hall, 1962
Ornette Coleman: saxophone
David Izenzohn: bass
Charles Moffett: percussion
Selwart Clark: violin
Nathan Goldstein: violin
Julian Barber: viola
Kermit Moore: cello
 
Отчёт XLD
X Lossless Decoder version 20100711 (120.5)
XLD extraction logfile from 2010-08-22 15:56:35 +0200
Coleman Ornette / Dedication To Poet And Writers
Used drive : HL-DT-ST DVDRW GSA-S10N (revision AP12)
Use cdparanoia mode : YES (CDParanoia III 10.2 engine)
Disable audio cache : OK for the drive with cache less than 2750KB
Make use of C2 pointers : NO
Read offset correction : 667
Max retry count : 100
Gap status : Analyzed, Appended
TOC of the extracted CD
Track | Start | Length | Start sector | End sector
---------------------------------------------------------
1 | 00:00:00 | 09:00:00 | 0 | 40499
2 | 09:00:00 | 04:10:00 | 40500 | 59249
3 | 13:10:00 | 08:51:00 | 59250 | 99074
4 | 22:01:00 | 22:39:00 | 99075 | 200999
Track 01
Filename : /Users/aphex/Music/What.CD to convert/CDs Massimo/Coleman Ornette - Dedication To Poet And Writers - 0000 - [FLAC]/01 - Doughnut.flac
Pre-gap length : 00:02:00
CRC32 hash (test run) : BC76A970
CRC32 hash : BC76A970
CRC32 hash (skip zero) : 560F83A9
AccurateRip signature : 670A16ED
->Track not present in AccurateRip database.
Statistics
Read error : 0
Skipped (treated as error) : 0
Edge jitter error (maybe fixed) : 0
Atom jitter error (maybe fixed) : 0
Drift error (maybe fixed) : 0
Dropped bytes error (maybe fixed) : 0
Duplicated bytes error (maybe fixed) : 0
Inconsistency in error sectors : 0
Track 02
Filename : /Users/aphex/Music/What.CD to convert/CDs Massimo/Coleman Ornette - Dedication To Poet And Writers - 0000 - [FLAC]/02 - Sadness.flac
CRC32 hash (test run) : 8EA91D9D
CRC32 hash : 8EA91D9D
CRC32 hash (skip zero) : 2778DD77
AccurateRip signature : 6B2DFAD5
->Track not present in AccurateRip database.
Statistics
Read error : 0
Skipped (treated as error) : 0
Edge jitter error (maybe fixed) : 0
Atom jitter error (maybe fixed) : 0
Drift error (maybe fixed) : 0
Dropped bytes error (maybe fixed) : 0
Duplicated bytes error (maybe fixed) : 0
Inconsistency in error sectors : 0
Track 03
Filename : /Users/aphex/Music/What.CD to convert/CDs Massimo/Coleman Ornette - Dedication To Poet And Writers - 0000 - [FLAC]/03 - Dedication To Poet And Writers.flac
CRC32 hash (test run) : 428FB603
CRC32 hash : 428FB603
CRC32 hash (skip zero) : DA1CE548
AccurateRip signature : 74017D14
->Track not present in AccurateRip database.
Statistics
Read error : 0
Skipped (treated as error) : 0
Edge jitter error (maybe fixed) : 0
Atom jitter error (maybe fixed) : 0
Drift error (maybe fixed) : 0
Dropped bytes error (maybe fixed) : 0
Duplicated bytes error (maybe fixed) : 0
Inconsistency in error sectors : 0
Track 04
Filename : /Users/aphex/Music/What.CD to convert/CDs Massimo/Coleman Ornette - Dedication To Poet And Writers - 0000 - [FLAC]/04 - The Ark.flac
CRC32 hash (test run) : A6F1F1E4
CRC32 hash : A6F1F1E4
CRC32 hash (skip zero) : DB0D740D
AccurateRip signature : CCA0C9CA
->Track not present in AccurateRip database.
Statistics
Read error : 0
Skipped (treated as error) : 0
Edge jitter error (maybe fixed) : 0
Atom jitter error (maybe fixed) : 0
Drift error (maybe fixed) : 0
Dropped bytes error (maybe fixed) : 0
Duplicated bytes error (maybe fixed) : 0
Inconsistency in error sectors : 0
No errors occurred
End of status report
 
Отчёт Audiocheckera
AUDIOCHECKER v2.0 beta (build 457) - by Dester - opdester@freemail.hu
~~~~~~~~~~~~~~~~~~~~~~~~~~~~~~~~~~
-=== DO NOT EDIT THIS FILE! ===-
Path: ...\Coleman Ornette - Dedication To Poet And Writers - 1996 - [FLAC]
1 -=- 01 - Doughnut.flac -=- CDDA (100%)
2 -=- 02 - Sadness.flac -=- CDDA (99%)
3 -=- 03 - Dedication To Poet And Writers.flac -=- CDDA (100%)
4 -=- 04 - The Ark.flac -=- CDDA (100%)
Summary 99,75% CDDA
42298212
 
cue
TITLE "Dedication To Poet And Writers"
PERFORMER "Coleman Ornette"
REM GENRE "jazz"
REM DISCID 280A7804
FILE "01 - Doughnut.wav" WAVE
TRACK 01 AUDIO
TITLE "Doughnut"
INDEX 01 00:00:00
FILE "02 - Sadness.wav" WAVE
TRACK 02 AUDIO
TITLE "Sadness"
INDEX 01 00:00:00
FILE "03 - Dedication To Poet And Writers.wav" WAVE
TRACK 03 AUDIO
TITLE "Dedication To Poet And Writers"
INDEX 01 00:00:00
FILE "04 - The Ark.wav" WAVE
TRACK 04 AUDIO
TITLE "The Ark"
INDEX 01 00:00:00
По всем вопросам пишите личное сообщение пользователю M0p94ok.
03:03
141
Нет комментариев. Ваш будет первым!