Поиск

( free jazz) Ornette Coleman & Charlie Haden - Soapsuds, Soapsuds 1978, FLAC (tracks) lossless

( free jazz) Ornette Coleman & Charlie Haden - Soapsuds, Soapsuds 1978, FLAC (tracks) lossless
Треклист:


Ornette Coleman & Charlie Haden - Soapsuds, Soapsuds 1978

Жанр: free jazz
Год выпуска: 1978
Издатель (лейбл):1996, Polygram Records
Формат: FLAC (tracks+.cue)
Битрейт аудио: lossless
Продолжительность 38:28
Источник: ed2k

tracks

01 - Mary Hartman, Mary Hartman.flac
02 - Human Being.flac
03 - Soap Suds.flac
04 - Sex Spy.flac
05 - Some Day.flac


 
.log
EAC extraction logfile from 15. November 2005, 6:05 for CD
Ornette Coleman / Charlie Haden / Soapsuds, Soapsuds
Used drive : SONY CD-ROM CDU5211 Adapter: 1 ID: 0
Read mode : Secure with NO C2, accurate stream, disable cache
Read offset correction : 600
Overread into Lead-In and Lead-Out : Yes
Used output format : D:\flac112\bin\flac.exe (User Defined Encoder)
320 kBit/s
Additional command line options : -5 -V -T "ARTIST=%a" -T "TITLE=%t" -T "ALBUM=%g" -T "DATE=%y" -T "TRACKNUMBER=%n" -T "GENRE=%m" -T "COMMENT=EAC Flac 1.1.2 -5" %s
Other options :
Fill up missing offset samples with silence : Yes
Delete leading and trailing silent blocks : No
Native Win32 interface for Win NT & 2000
Track 1
Filename D:\CDRIP\01 - Mary Hartman, Mary Hartman.wav
Pre-gap length 0:00:02.32
Peak level 68.7 %
Track quality 100.0 %
Test CRC E6DBFB4A
Copy CRC E6DBFB4A
Copy OK
Track 2
Filename D:\CDRIP\02 - Human Being.wav
Peak level 69.8 %
Track quality 99.9 %
Test CRC 9AE8F897
Copy CRC 9AE8F897
Copy OK
Track 3
Filename D:\CDRIP\03 - Soap Suds.wav
Pre-gap length 0:00:02.10
Peak level 74.7 %
Track quality 99.9 %
Test CRC 98B6251A
Copy CRC 98B6251A
Copy OK
Track 4
Filename D:\CDRIP\04 - Sex Spy.wav
Pre-gap length 0:00:03.03
Peak level 79.4 %
Track quality 99.9 %
Test CRC DD52ECD1
Copy CRC DD52ECD1
Copy OK
Track 5
Filename D:\CDRIP\05 - Some Day.wav
Pre-gap length 0:00:02.59
Peak level 84.7 %
Track quality 100.0 %
Test CRC FD6B9341
Copy CRC FD6B9341
Copy OK
No errors occured
End of status report
 
.cue
REM DISCID 43090405
REM COMMENT "ExactAudioCopy v0.95b3"
PERFORMER "Ornette Coleman"
TITLE "Charlie Haden / Soapsuds, Soapsuds"
FILE "01 - Mary Hartman, Mary Hartman.wav" WAVE
TRACK 01 AUDIO
TITLE "Mary Hartman, Mary Hartman"
PERFORMER "Ornette Coleman"
PREGAP 00:00:32
INDEX 01 00:00:00
FILE "02 - Human Being.wav" WAVE
TRACK 02 AUDIO
TITLE "Human Being"
PERFORMER "Ornette Coleman"
INDEX 01 00:00:00
TRACK 03 AUDIO
TITLE "Soap Suds"
PERFORMER "Ornette Coleman"
INDEX 00 07:47:15
FILE "03 - Soap Suds.wav" WAVE
INDEX 01 00:00:00
TRACK 04 AUDIO
TITLE "Sex Spy"
PERFORMER "Ornette Coleman"
INDEX 00 05:14:40
FILE "04 - Sex Spy.wav" WAVE
INDEX 01 00:00:00
TRACK 05 AUDIO
TITLE "Some Day"
PERFORMER "Ornette Coleman"
INDEX 00 09:57:21
FILE "05 - Some Day.wav" WAVE
INDEX 01 00:00:00

другие релизы
Приватный:
Нет (DHT включён)
Размер:
151.71 Мб (159,074,372 байт) » файлов: 15
Участники:
0 раздают, 0 качают (0 участников всего)
Внешние участники:
9 раздают, 3 качают (12 участников всего) [ Обновить ]
Есть вопросы - пишите личное сообщение пользователю M0p94ok.
23:02
52
Нет комментариев. Ваш будет первым!