Вы используете незарегистрированную версию компонента "Вкладки"!

Поиск

(Free Jazz) Old And New Dreams (Don Cherry, Dewey Redman, Charlie Haden, Eddie Blackwel) - A Tribute to Blackwell 1987, FLAC (tracks+.cue) lossless

Треклист:



Old And New Dreams
Don Cherry, Dewey Redman, Charlie Haden, Eddie Blackwel

A Tribute to Blackwell

Жанр: Free Jazz
Год издания диска: 1987
Издатель (лейбл): Black Saint
Аудио кодек: FLAC (*.flac)
Тип рипа: tracks+.cue
Битрейт аудио: lossless
Источник (релизер): avaxhome
Наличие сканов в содержимом раздачи: да
Треклист:
01 Happy House - 9:15 (Ornette Coleman)
02 Law Years - 9:00 (Ornette Coleman)
03 Guinea - 8:10 (Don Cherry) (*)
04 Dewey's Tune - 11:25 (Dewey Redman)
05 Street Woman - 9:30 (Ornette Coleman)
 
Лог создания рипа
EAC extraction logfile from 19. May 2006, 12:04 for CD
Old and New Dreams / A Tribute to Blackwell
Used drive : HL-DT-STCD-RW GCE-8525B Adapter: 1 ID: 0
Read mode : Secure with NO C2, accurate stream, disable cache
Read offset correction : 6
Overread into Lead-In and Lead-Out : No
Used output format : G:\Monkey's Audio\MAC.exe (Monkey's Audio Lossless Encoder)
Extra High Lossless Compression
Other options :
Fill up missing offset samples with silence : Yes
Delete leading and trailing silent blocks : No
Installed external ASPI interface
Range status and errors
Selected range
Filename G:\FTP MUSICA\Old and New Dreams - A Tribute to Blackwell (ape+cue+covers)\CDImage.wav
Peak level 100.0 %
Range quality 100.0 %
CRC EF3B10C8
Copy OK
No errors occured
End of status report
 
Содержание индексной карты (.CUE)
;
;--[ Created by Medieval CUE Splitter! ]--
;
;-----------[ www.medieval.it ]-----------
;
TITLE "A Tribute to Blackwell"
PERFORMER "Old and New Dreams"
CATALOG 0000000000000
FILE "01 - Track01.flac" WAVE
TRACK 01 AUDIO
TITLE Track01
PERFORMER "Old and New Dreams"
PREGAP 00:00:33
INDEX 01 00:00:00
FILE "02 - Track02.flac" WAVE
TRACK 02 AUDIO
TITLE Track02
PERFORMER "Old and New Dreams"
INDEX 01 00:00:00
FILE "03 - Track03.flac" WAVE
TRACK 03 AUDIO
TITLE Track03
PERFORMER "Old and New Dreams"
INDEX 01 00:00:00
FILE "04 - Track04.flac" WAVE
TRACK 04 AUDIO
TITLE Track04
PERFORMER "Old and New Dreams"
INDEX 01 00:00:00
FILE "05 - Track05.flac" WAVE
TRACK 05 AUDIO
TITLE Track05
PERFORMER "Old and New Dreams"
INDEX 01 00:00:00
 
Состав
* Don Cherry - Trumpet
* Dewey Redman - Tenor saxophone
* Charlie Haden - Bass
* Ed Blackwell - Drums

другие релизы
Any questions -> support@pro-jazz.com. По всем вопросам пишите -> support@pro-jazz.com
04:53
173
Нет комментариев. Ваш будет первым!