Поиск

(free jazz, ogun) [cd] Louis Moholo-Moholo Octet - Spirits Rejoice! 1978 & Louis Moholo-Moholo Septet ‎– Bra Louis-Bra Tebs 1995 , FLAC (tracks+.cue), lossless

(free jazz, ogun) [cd] Louis Moholo-Moholo Octet - Spirits Rejoice! 1978 & Louis Moholo-Moholo Septet ‎– Bra Louis-Bra Tebs 1995 , FLAC (tracks+.cue), lossless
Треклист:
(free jazz, ogun) [cd] Louis Moholo-Moholo Octet - Spirits Rejoice! 1978 & Louis Moholo-Moholo Septet - Bra Louis-Bra Tebs 1995
, FLAC (tracks+.cue), lossless


Louis Moholo-Moholo Octet - Spirits Rejoice! 1978
Louis Moholo-Moholo Septet - Bra Louis-Bra Tebs 1995
Жанр:free jazz
Год выпуска: 2005
Издатель (лейбл):Ogun ‎– OGCD 017/018
Формат: FLAC (tracks+.cue)
Битрейт аудио: lossless
Источник: what.cd
 
Louis Moholo-Moholo Octet - Spirits Rejoice! 1978



Louis Moholo-Moholo Octet - Spirits Rejoice! 1978
Bass – Harry Miller, Johnny Dyani
Drums – Louis Moholo-Moholo
Tenor Saxophone – Evan Parker
Piano – Keith Tippett
Trombone – Nick Evans, Radu Malfatti
Trumpet - Kenny Wheeler
Recorded at Redan Recorders, London, 1978. Originally released on LP in 1978 as OG 520

1 Khanya Apho Ukhona 8:00
2 You Ain't Gonna Know Me 7:15
3 Ithi-gqi 8:00
4 Amaxesha Osizi (Times Of Sorrow) 9:50
5 Wedding Hymn 11:20

 
.log
Exact Audio Copy V1.0 beta 3 from 29. August 2011
EAC extraction logfile from 12. August 2015, 10:46
Louis Moholo-Moholo Octet / Spirits Rejoice
Used drive : HL-DT-STBD-RE WH14NS40 Adapter: 0 ID: 0
Read mode : Secure
Utilize accurate stream : Yes
Defeat audio cache : Yes
Make use of C2 pointers : No
Read offset correction : 6
Overread into Lead-In and Lead-Out : No
Fill up missing offset samples with silence : Yes
Delete leading and trailing silent blocks : No
Null samples used in CRC calculations : Yes
Used interface : Native Win32 interface for Win NT & 2000
Gap handling : Appended to previous track
Used output format : User Defined Encoder
Selected bitrate : 1024 kBit/s
Quality : High
Add ID3 tag : No
Command line compressor : C:\Program Files (x86)\FLAC\flac.exe
Additional command line options : -8 -V -T "ARTIST=%artist%" -T "TITLE=%title%" -T "ALBUM=%albumtitle%" -T "DATE=%year%" -T "TRACKNUMBER=%tracknr%" -T "GENRE=%genre%" -T "PERFORMER=%albuminterpret%" -T "COMPOSER=%composer%" %haslyrics%--tag-from-file=LYRICS="%lyricsfile%"%haslyrics% -T "ALBUMARTIST=%albumartist%" -T "DISCNUMBER=%cdnumber%" -T "TOTALDISCS=%totalcds%" -T "TOTALTRACKS=%numtracks%" -T "COMMENT=%comment%" %source% -o %dest%
TOC of the extracted CD
Track | Start | Length | Start sector | End sector
---------------------------------------------------------
1 | 0:00.00 | 7:50.17 | 0 | 35266
2 | 7:50.17 | 7:19.00 | 35267 | 68191
3 | 15:09.17 | 8:13.37 | 68192 | 105203
4 | 23:22.54 | 9:48.36 | 105204 | 149339
5 | 33:11.15 | 11:10.31 | 149340 | 199620
Track 1
Filename Z:\Torrents\Music\What.cd\Louis Moholo - Spirits Rejoice (2005) [FLAC]\01 - Khanya apho ukhona (Shine wherewer you are).wav
Pre-gap length 0:00:02.00
Peak level 98.3 %
Extraction speed 3.0 X
Track quality 100.0 %
Test CRC B1542C3F
Copy CRC B1542C3F
Accurately ripped (confidence 2) [525B7A29] (AR v2)
Copy OK
Track 2
Filename Z:\Torrents\Music\What.cd\Louis Moholo - Spirits Rejoice (2005) [FLAC]\02 - You ain't gonna know me 'cos you think you know me.wav
Pre-gap length 0:00:04.00
Peak level 98.8 %
Extraction speed 3.5 X
Track quality 100.0 %
Test CRC A4F9B40D
Copy CRC A4F9B40D
Accurately ripped (confidence 2) [797D3C1E] (AR v2)
Copy OK
Track 3
Filename Z:\Torrents\Music\What.cd\Louis Moholo - Spirits Rejoice (2005) [FLAC]\03 - Ihi gqi (Appear).wav
Pre-gap length 0:00:04.00
Peak level 98.8 %
Extraction speed 4.0 X
Track quality 100.0 %
Test CRC C300380F
Copy CRC C300380F
Accurately ripped (confidence 2) [85B8DF10] (AR v2)
Copy OK
Track 4
Filename Z:\Torrents\Music\What.cd\Louis Moholo - Spirits Rejoice (2005) [FLAC]\04 - Wedding Hymn.wav
Pre-gap length 0:00:04.00
Peak level 98.8 %
Extraction speed 4.6 X
Track quality 100.0 %
Test CRC 331E5599
Copy CRC 331E5599
Accurately ripped (confidence 2) [164A96DD] (AR v2)
Copy OK
Track 5
Filename Z:\Torrents\Music\What.cd\Louis Moholo - Spirits Rejoice (2005) [FLAC]\05 - Amaxesha Osizi (Times of sorrow).wav
Pre-gap length 0:00:04.00
Peak level 92.2 %
Extraction speed 5.3 X
Track quality 100.0 %
Test CRC AFE2B378
Copy CRC AFE2B378
Accurately ripped (confidence 2) [206CE96F] (AR v2)
Copy OK
All tracks accurately ripped
No errors occurred
End of status report
---- CUETools DB Plugin V2.1.3
[CTDB TOCID: Ugz0l3sM_OWha7JYgP2b4v7.P3o-] disk not present in database, Submit result: Ugz0l3sM_OWha7JYgP2b4v7.P3o- has been uploaded
==== Log checksum C9F172423C143ED87EA7E765F7EE56564CA67E4F99A57BC4A7B69C9D2A9C8020 ====
 
.cue
REM GENRE Jazz
REM DISCID 390A6505
REM COMMENT "ExactAudioCopy v1.0b3"
PERFORMER "Louis Moholo-Moholo Octet"
TITLE "Spirits Rejoice"
FILE "01 - Khanya apho ukhona (Shine wherewer you are).wav" WAVE
TRACK 01 AUDIO
TITLE "Khanya apho ukhona (Shine wherewer you are)"
PERFORMER "Louis Moholo-Moholo Octet"
INDEX 01 00:00:00
TRACK 02 AUDIO
TITLE "You ain't gonna know me 'cos you think you know me"
PERFORMER "Louis Moholo-Moholo Octet"
INDEX 00 07:46:17
FILE "02 - You ain't gonna know me 'cos you think you know me.wav" WAVE
INDEX 01 00:00:00
TRACK 03 AUDIO
TITLE "Ihi gqi (Appear)"
PERFORMER "Louis Moholo-Moholo Octet"
INDEX 00 07:15:00
FILE "03 - Ihi gqi (Appear).wav" WAVE
INDEX 01 00:00:00
TRACK 04 AUDIO
TITLE "Wedding Hymn"
PERFORMER "Louis Moholo-Moholo"
INDEX 00 08:09:37
FILE "04 - Wedding Hymn.wav" WAVE
INDEX 01 00:00:00
TRACK 05 AUDIO
TITLE "Amaxesha Osizi (Times of sorrow)"
PERFORMER "Louis Moholo-Moholo Octet"
INDEX 00 09:44:36
FILE "05 - Amaxesha Osizi (Times of sorrow).wav" WAVE
INDEX 01 00:00:00
 
.accurip
[CUETools log; Date: 18/06/16 23:15:00; Version: 2.1.4]
[CTDB TOCID: Ugz0l3sM_OWha7JYgP2b4v7.P3o-] found.
Track | CTDB Status
1 | (2/2) Accurately ripped
2 | (2/2) Accurately ripped
3 | (2/2) Accurately ripped
4 | (2/2) Accurately ripped
5 | (1/2) Accurately ripped
[AccurateRip ID: 00088238-002849e1-390a6505] found.
Track [ CRC | V2 ] Status
01 [d176b763|525b7a29] (0+2/2) Accurately ripped
02 [c3467621|797d3c1e] (0+2/2) Accurately ripped
03 [7a4950a7|85b8df10] (0+2/2) Accurately ripped
04 [dd837950|164a96dd] (0+2/2) Accurately ripped
05 [5bc56956|206ce96f] (0+2/2) Accurately ripped
Track Peak [ CRC32 ] [W/O NULL] [ LOG ]
-- 98.8 [D558661B] [F2CEA249]
01 98.3 [B1542C3F] [DBDBB374] CRC32
02 98.8 [A4F9B40D] [A52C894D] CRC32
03 98.8 [C300380F] [3538D9DF] CRC32
04 98.8 [331E5599] [B47B6F0D] CRC32
05 92.2 [AFE2B378] [687215BB] CRC32
 
Louis Moholo-Moholo Septet - Bra Louis-Bra Tebs 1995



Louis Moholo-Moholo Septet - Bra Louis-Bra Tebs 1995

Alto Saxophone, Soprano Saxophone – Jason Yarde
Roberto Bellatalla
Drums – Louis Moholo-Moholo
Piano – Pule Pheto
Tenor Saxophone – Tobias Delius
Trumpet – Claude Deppa
Vocals – Francine Luce
Recorded at RG Jones, London, 1995, previously unreleased.


1 Sonke 5:41
2 Lakutshona Ilanga / Ntyilo-Ntyilo 5:03
3 Unisone 2:44
4 B My Dear 7:01
5 Maybe Of Cause 4:50
6 Utshaka 6:57
7 Moegoe 2:36
8 Motherless Child 7:01
9 Yes Please 3:09
10 Hayi Umntu Endinguye 9:19
11 Yes Baby, No Baby 4:47
12 Ntyilo-Ntyilo 4:4

 
.log
Exact Audio Copy V1.0 beta 3 from 29. August 2011
EAC extraction logfile from 12. August 2015, 12:40
Louis Moholo-Moholo Septet / Bra Luis - Bra Tebs
Used drive : HL-DT-STBD-RE WH14NS40 Adapter: 0 ID: 0
Read mode : Secure
Utilize accurate stream : Yes
Defeat audio cache : Yes
Make use of C2 pointers : No
Read offset correction : 6
Overread into Lead-In and Lead-Out : No
Fill up missing offset samples with silence : Yes
Delete leading and trailing silent blocks : No
Null samples used in CRC calculations : Yes
Used interface : Native Win32 interface for Win NT & 2000
Gap handling : Appended to previous track
Used output format : User Defined Encoder
Selected bitrate : 1024 kBit/s
Quality : High
Add ID3 tag : No
Command line compressor : C:\Program Files (x86)\FLAC\flac.exe
Additional command line options : -8 -V -T "ARTIST=%artist%" -T "TITLE=%title%" -T "ALBUM=%albumtitle%" -T "DATE=%year%" -T "TRACKNUMBER=%tracknr%" -T "GENRE=%genre%" -T "PERFORMER=%albuminterpret%" -T "COMPOSER=%composer%" %haslyrics%--tag-from-file=LYRICS="%lyricsfile%"%haslyrics% -T "ALBUMARTIST=%albumartist%" -T "DISCNUMBER=%cdnumber%" -T "TOTALDISCS=%totalcds%" -T "TOTALTRACKS=%numtracks%" -T "COMMENT=%comment%" %source% -o %dest%
TOC of the extracted CD
Track | Start | Length | Start sector | End sector
---------------------------------------------------------
1 | 0:00.00 | 5:43.44 | 0 | 25768
2 | 5:43.44 | 5:05.05 | 25769 | 48648
3 | 10:48.49 | 2:46.05 | 48649 | 61103
4 | 13:34.54 | 7:03.58 | 61104 | 92886
5 | 20:38.37 | 4:52.27 | 92887 | 114813
6 | 25:30.64 | 6:59.52 | 114814 | 146290
7 | 32:30.41 | 2:38.55 | 146291 | 158195
8 | 35:09.21 | 7:03.20 | 158196 | 189940
9 | 42:12.41 | 3:09.47 | 189941 | 204162
10 | 45:22.13 | 9:21.35 | 204163 | 246272
11 | 54:43.48 | 4:49.72 | 246273 | 268019
12 | 59:33.45 | 4:41.32 | 268020 | 289126
Track 1
Filename Z:\Torrents\Music\Transcodes\Louis Moholo-Moholo - Bra Luis-Bra Tebs(2005)[FLAC]\01 - Louis Moholo-Moholo Septet - Sonke.wav
Pre-gap length 0:00:02.00
Peak level 99.9 %
Extraction speed 2.7 X
Track quality 99.9 %
Test CRC 1818E170
Copy CRC 1818E170
Accurately ripped (confidence 2) [97625912] (AR v2)
Copy OK
Track 2
Filename Z:\Torrents\Music\Transcodes\Louis Moholo-Moholo - Bra Luis-Bra Tebs(2005)[FLAC]\02 - Louis Moholo-Moholo Septet - Lakutshona Ilanga & Ntyilo-Ntyilo.wav
Pre-gap length 0:00:02.00
Peak level 100.0 %
Extraction speed 3.1 X
Track quality 100.0 %
Test CRC 957AA73A
Copy CRC 957AA73A
Accurately ripped (confidence 2) [C65EC66B] (AR v2)
Copy OK
Track 3
Filename Z:\Torrents\Music\Transcodes\Louis Moholo-Moholo - Bra Luis-Bra Tebs(2005)[FLAC]\03 - Louis Moholo-Moholo Septet - Unisone.wav
Pre-gap length 0:00:02.00
Peak level 100.0 %
Extraction speed 3.3 X
Track quality 100.0 %
Test CRC 1BB1845C
Copy CRC 1BB1845C
Accurately ripped (confidence 2) [4DD90A6D] (AR v2)
Copy OK
Track 4
Filename Z:\Torrents\Music\Transcodes\Louis Moholo-Moholo - Bra Luis-Bra Tebs(2005)[FLAC]\04 - Louis Moholo-Moholo Septet - B My Dear.wav
Pre-gap length 0:00:02.00
Peak level 100.0 %
Extraction speed 3.8 X
Track quality 100.0 %
Test CRC AD7286E4
Copy CRC AD7286E4
Accurately ripped (confidence 2) [65E1C18F] (AR v2)
Copy OK
Track 5
Filename Z:\Torrents\Music\Transcodes\Louis Moholo-Moholo - Bra Luis-Bra Tebs(2005)[FLAC]\05 - Louis Moholo-Moholo Septet - Maybe Of Cause.wav
Pre-gap length 0:00:02.00
Peak level 100.0 %
Extraction speed 3.9 X
Track quality 100.0 %
Test CRC F0318C72
Copy CRC F0318C72
Accurately ripped (confidence 2) [F4F6E5C3] (AR v2)
Copy OK
Track 6
Filename Z:\Torrents\Music\Transcodes\Louis Moholo-Moholo - Bra Luis-Bra Tebs(2005)[FLAC]\06 - Louis Moholo-Moholo Septet - Utshaka.wav
Pre-gap length 0:00:02.00
Peak level 100.0 %
Extraction speed 4.4 X
Track quality 100.0 %
Test CRC CFE42994
Copy CRC CFE42994
Accurately ripped (confidence 2) [D8866BD1] (AR v2)
Copy OK
Track 7
Filename Z:\Torrents\Music\Transcodes\Louis Moholo-Moholo - Bra Luis-Bra Tebs(2005)[FLAC]\07 - Louis Moholo-Moholo Septet - Moegoe.wav
Pre-gap length 0:00:02.00
Peak level 100.0 %
Extraction speed 4.1 X
Track quality 100.0 %
Test CRC 5C7C1E7F
Copy CRC 5C7C1E7F
Accurately ripped (confidence 2) [30D6D35E] (AR v2)
Copy OK
Track 8
Filename Z:\Torrents\Music\Transcodes\Louis Moholo-Moholo - Bra Luis-Bra Tebs(2005)[FLAC]\08 - Louis Moholo-Moholo Septet - Motherless Child.wav
Pre-gap length 0:00:02.00
Peak level 100.0 %
Extraction speed 4.7 X
Track quality 99.9 %
Test CRC ED2344E3
Copy CRC ED2344E3
Accurately ripped (confidence 2) [D4BD66A7] (AR v2)
Copy OK
Track 9
Filename Z:\Torrents\Music\Transcodes\Louis Moholo-Moholo - Bra Luis-Bra Tebs(2005)[FLAC]\09 - Louis Moholo-Moholo Septet - Yes Please.wav
Pre-gap length 0:00:02.00
Peak level 99.9 %
Extraction speed 4.4 X
Track quality 100.0 %
Test CRC A9796BC2
Copy CRC A9796BC2
Accurately ripped (confidence 2) [6636943F] (AR v2)
Copy OK
Track 10
Filename Z:\Torrents\Music\Transcodes\Louis Moholo-Moholo - Bra Luis-Bra Tebs(2005)[FLAC]\10 - Louis Moholo-Moholo Septet - Hayi Umntu Endiguye.wav
Peak level 100.0 %
Extraction speed 5.5 X
Track quality 100.0 %
Test CRC 839A7046
Copy CRC 839A7046
Accurately ripped (confidence 2) [3019B909] (AR v2)
Copy OK
Track 11
Filename Z:\Torrents\Music\Transcodes\Louis Moholo-Moholo - Bra Luis-Bra Tebs(2005)[FLAC]\11 - Louis Moholo-Moholo Septet - Yes Baby No Baby.wav
Pre-gap length 0:00:02.00
Peak level 100.0 %
Extraction speed 5.2 X
Track quality 100.0 %
Test CRC 3DD626B2
Copy CRC 3DD626B2
Accurately ripped (confidence 2) [50BA337D] (AR v2)
Copy OK
Track 12
Filename Z:\Torrents\Music\Transcodes\Louis Moholo-Moholo - Bra Luis-Bra Tebs(2005)[FLAC]\12 - Louis Moholo-Moholo Septet - Ntyilo-Ntyilo.wav
Pre-gap length 0:00:02.00
Peak level 100.0 %
Extraction speed 4.1 X
Track quality 99.9 %
Test CRC A10DCF09
Copy CRC A10DCF09
Accurately ripped (confidence 2) [FCDF28C2] (AR v2)
Copy OK
All tracks accurately ripped
No errors occurred
End of status report
---- CUETools DB Plugin V2.1.3
[CTDB TOCID: vvhv.xdVHIt6muJW9nprksqjgf0-] disk not present in database, Submit result: vvhv.xdVHIt6muJW9nprksqjgf0- has been uploaded
==== Log checksum AAD477D6139C6B366B008D633F75CBAD4A9409DC41119AA092C0B8DCEC7D6C7C ====
 
.cue
REM GENRE Jazz
REM DISCID 930F0F0C
REM COMMENT "ExactAudioCopy v1.0b3"
PERFORMER "Louis Moholo-Moholo Septet"
TITLE "Bra Luis - Bra Tebs"
FILE "01 - Louis Moholo-Moholo Septet - Sonke.wav" WAVE
TRACK 01 AUDIO
TITLE "Sonke"
PERFORMER "Louis Moholo-Moholo Septet"
INDEX 01 00:00:00
TRACK 02 AUDIO
TITLE "Lakutshona Ilanga - Ntyilo-Ntyilo"
PERFORMER "Louis Moholo-Moholo Septet"
INDEX 00 05:41:44
FILE "02 - Louis Moholo-Moholo Septet - Lakutshona Ilanga & Ntyilo-Ntyilo.wav" WAVE
INDEX 01 00:00:00
TRACK 03 AUDIO
TITLE "Unisone"
PERFORMER "Louis Moholo-Moholo Septet"
INDEX 00 05:03:05
FILE "03 - Louis Moholo-Moholo Septet - Unisone.wav" WAVE
INDEX 01 00:00:00
TRACK 04 AUDIO
TITLE "B My Dear"
PERFORMER "Louis Moholo-Moholo Septet"
INDEX 00 02:44:05
FILE "04 - Louis Moholo-Moholo Septet - B My Dear.wav" WAVE
INDEX 01 00:00:00
TRACK 05 AUDIO
TITLE "Maybe Of Cause"
PERFORMER "Louis Moholo-Moholo Septet"
INDEX 00 07:01:58
FILE "05 - Louis Moholo-Moholo Septet - Maybe Of Cause.wav" WAVE
INDEX 01 00:00:00
TRACK 06 AUDIO
TITLE "Utshaka"
PERFORMER "Louis Moholo-Moholo Septet"
INDEX 00 04:50:27
FILE "06 - Louis Moholo-Moholo Septet - Utshaka.wav" WAVE
INDEX 01 00:00:00
TRACK 07 AUDIO
TITLE "Moegoe"
PERFORMER "Louis Moholo-Moholo Septet"
INDEX 00 06:57:52
FILE "07 - Louis Moholo-Moholo Septet - Moegoe.wav" WAVE
INDEX 01 00:00:00
TRACK 08 AUDIO
TITLE "Motherless Child"
PERFORMER "Louis Moholo-Moholo Septet"
INDEX 00 02:36:55
FILE "08 - Louis Moholo-Moholo Septet - Motherless Child.wav" WAVE
INDEX 01 00:00:00
TRACK 09 AUDIO
TITLE "Yes Please"
PERFORMER "Louis Moholo-Moholo Septet"
INDEX 00 07:01:20
FILE "09 - Louis Moholo-Moholo Septet - Yes Please.wav" WAVE
INDEX 01 00:00:00
FILE "10 - Louis Moholo-Moholo Septet - Hayi Umntu Endiguye.wav" WAVE
TRACK 10 AUDIO
TITLE "Hayi Umntu Endiguye"
PERFORMER "Louis Moholo-Moholo Septet"
INDEX 01 00:00:00
TRACK 11 AUDIO
TITLE "Yes Baby No Baby"
PERFORMER "Louis Moholo-Moholo Septet"
INDEX 00 09:19:35
FILE "11 - Louis Moholo-Moholo Septet - Yes Baby No Baby.wav" WAVE
INDEX 01 00:00:00
TRACK 12 AUDIO
TITLE "Ntyilo-Ntyilo"
PERFORMER "Louis Moholo-Moholo Septet"
INDEX 00 04:47:72
FILE "12 - Louis Moholo-Moholo Septet - Ntyilo-Ntyilo.wav" WAVE
INDEX 01 00:00:00
 
.accurip
[CUETools log; Date: 19/06/16 04:21:05; Version: 2.1.4]
[CTDB TOCID: vvhv.xdVHIt6muJW9nprksqjgf0-] found.
Track | CTDB Status
1 | (1/1) Accurately ripped
2 | (1/1) Accurately ripped
3 | (1/1) Accurately ripped
4 | (1/1) Accurately ripped
5 | (1/1) Accurately ripped
6 | (1/1) Accurately ripped
7 | (1/1) Accurately ripped
8 | (1/1) Accurately ripped
9 | (1/1) Accurately ripped
10 | (1/1) Accurately ripped
11 | (1/1) Accurately ripped
12 | (1/1) Accurately ripped
[AccurateRip ID: 001c27f2-0108478b-930f0f0c] found.
Track [ CRC | V2 ] Status
01 [34e8c478|97625912] (0+2/2) Accurately ripped
02 [2cfbad9a|c65ec66b] (0+2/2) Accurately ripped
03 [ea2496e7|4dd90a6d] (0+2/2) Accurately ripped
04 [8928d5b3|65e1c18f] (0+2/2) Accurately ripped
05 [fcc4fd91|f4f6e5c3] (0+2/2) Accurately ripped
06 [95b9b692|d8866bd1] (0+2/2) Accurately ripped
07 [fa959a31|30d6d35e] (0+2/2) Accurately ripped
08 [4ce491ff|d4bd66a7] (0+2/2) Accurately ripped
09 [a9ec6479|6636943f] (0+2/2) Accurately ripped
10 [9e67fc0d|3019b909] (0+2/2) Accurately ripped
11 [5af48de9|50ba337d] (0+2/2) Accurately ripped
12 [063bef80|fcdf28c2] (0+2/2) Accurately ripped
Track Peak [ CRC32 ] [W/O NULL] [ LOG ]
-- 100.0 [C1E3EF29] [4541CFC1]
01 99.9 [1818E170] [E3CF0AA9] CRC32
02 100.0 [957AA73A] [FB18931B] CRC32
03 100.0 [1BB1845C] [045D2277] CRC32
04 100.0 [AD7286E4] [F2752141] CRC32
05 100.0 [F0318C72] [C7C910CC] CRC32
06 99.9 [CFE42994] [2C91BF8E] CRC32
07 100.0 [5C7C1E7F] [5C7B0E9F] CRC32
08 100.0 [ED2344E3] [908407C3] CRC32
09 99.9 [A9796BC2] [0EC1E34E] CRC32
10 100.0 [839A7046] [F30DE2DB] CRC32
11 100.0 [3DD626B2] [9F49D5F7] CRC32
12 100.0 [A10DCF09] [54649732] CRC32
https://www.discogs.com/Louis-Moholo-Moholo-Septet-Louis-Moholo-Moholo-Octet-Bra-...e/release/632428
другие релизы
20:00
293
Нет комментариев. Ваш будет первым!